<?xml version="1.0" standalone="no"?>
<!DOCTYPE svg PUBLIC "-//W3C//DTD SVG 1.1//EN" "http://www.w3.org/Graphics/SVG/1.1/DTD/svg11.dtd" >
<svg xmlns="http://www.w3.org/2000/svg">
<metadata>Generated by IcoMoon</metadata>
<defs>
<font id="tgico" horiz-adv-x="1024">
<font-face units-per-em="1024" ascent="1024" descent="0" />
<missing-glyph horiz-adv-x="1024" />
<glyph unicode="&#x20;" horiz-adv-x="0" d="" />
<glyph unicode="&#xe900;" glyph-name="check" d="M429.452 347.67l352.606 402.978c12.74 14.56 34.872 16.036 49.432 3.295 13.104-11.466 15.61-30.54 6.692-44.854l-3.397-4.578-377.263-431.158c-12.010-13.726-32.215-15.731-46.582-5.549l-4.553 3.846-161.684 161.684c-13.681 13.681-13.681 35.861 0 49.542 12.313 12.313 31.51 13.544 45.2 3.694l4.342-3.694 135.207-135.207z" />
<glyph unicode="&#xe901;" glyph-name="checks" d="M267.767 347.67l352.606 402.978c12.74 14.56 34.872 16.036 49.432 3.295 13.104-11.466 15.61-30.54 6.692-44.854l-3.397-4.578-377.263-431.158c-12.010-13.726-32.215-15.731-46.582-5.549l-4.553 3.846-161.684 161.684c-13.681 13.681-13.681 35.861 0 49.542 12.313 12.313 31.51 13.544 45.2 3.694l4.342-3.694 135.207-135.207zM537.241 347.67l352.606 402.978c12.74 14.56 34.872 16.036 49.432 3.295 13.104-11.466 15.61-30.54 6.692-44.854l-3.397-4.578-377.263-431.158c-12.010-13.726-32.215-15.731-46.582-5.549l-4.553 3.846-53.895 53.895c-13.681 13.681-13.681 35.861 0 49.542 12.313 12.313 31.51 13.544 45.2 3.694l4.342-3.694 27.417-27.417z" />
<glyph unicode="&#xe902;" glyph-name="activesessions" d="M170.667 938.667h597.333c91.4 0 166.019-71.849 170.458-162.149l0.209-8.518v-85.333c0-23.564-19.103-42.667-42.667-42.667-21.881 0-39.915 16.471-42.38 37.691l-0.287 4.976v85.333c0 44.986-34.811 81.842-78.965 85.099l-6.369 0.234h-597.333c-44.986 0-81.842-34.811-85.099-78.965l-0.234-6.369v-341.333c0-44.986 34.811-81.842 78.965-85.099l6.369-0.234h426.667c23.564 0 42.667-19.103 42.667-42.667 0-21.881-16.471-39.915-37.691-42.38l-4.976-0.287h-85.333v-85.333h85.333c21.881 0 39.915-16.471 42.38-37.691l0.287-4.976c0-21.881-16.471-39.915-37.691-42.38l-4.976-0.287h-256c-23.564 0-42.667 19.103-42.667 42.667 0 21.881 16.471 39.915 37.691 42.38l4.976 0.287h85.333v85.333h-256c-91.4 0-166.019 71.849-170.458 162.149l-0.209 8.518v341.333c0 91.4 71.849 166.019 162.149 170.458l8.518 0.209zM938.667 554.667c47.128 0 85.333-38.205 85.333-85.333v-298.667c0-47.128-38.205-85.333-85.333-85.333h-128c-47.128 0-85.333 38.205-85.333 85.333v298.667c0 47.128 38.205 85.333 85.333 85.333h128zM938.667 469.333h-128v-298.667h128v298.667z" />
<glyph unicode="&#xe903;" glyph-name="add" d="M507.024 853.046l4.976 0.287c21.881 0 39.915-16.471 42.38-37.691l0.287-4.976v-256h256c21.881 0 39.915-16.471 42.38-37.691l0.287-4.976c0-21.881-16.471-39.915-37.691-42.38l-4.976-0.287h-256v-256c0-21.881-16.471-39.915-37.691-42.38l-4.976-0.287c-21.881 0-39.915 16.471-42.38 37.691l-0.287 4.976v256h-256c-21.881 0-39.915 16.471-42.38 37.691l-0.287 4.976c0 21.881 16.471 39.915 37.691 42.38l4.976 0.287h256v256c0 21.881 16.471 39.915 37.691 42.38v0z" />
<glyph unicode="&#xe904;" glyph-name="add_reaction" d="M512 725.324l-40.477-13.492c5.807-17.423 22.112-29.174 40.477-29.174s34.67 11.752 40.477 29.174l-40.477 13.492zM704 853.111v0zM319.984 853.111v-42.667h0.061l-0.061 42.667zM532.209 182.574v0zM491.791 182.574v0zM822.118 520.134c-10.576-21.059-2.076-46.702 18.984-57.276s46.7-2.074 57.276 18.984l-76.26 38.291zM573.121 157.798c19.877 12.652 25.737 39.026 13.084 58.903s-39.022 25.737-58.902 13.084l45.818-71.987zM513.994 219.005c-38.321 23.353-126.041 80.577-203.664 157.935-79.025 78.755-139.663 170.519-139.663 263.051h-85.333c0-127.871 81.68-240.699 164.76-323.495 84.483-84.19 178.659-145.471 219.494-170.359l44.406 72.869zM512 725.324c40.477-13.492 40.47-13.513 40.464-13.533-0.002-0.006-0.009-0.026-0.013-0.038-0.008-0.024-0.015-0.046-0.023-0.066-0.014-0.040-0.024-0.074-0.034-0.1-0.018-0.052-0.026-0.075-0.024-0.069 0.003 0.010 0.047 0.132 0.131 0.358 0.168 0.453 0.499 1.317 1.007 2.535 1.018 2.443 2.725 6.259 5.222 10.99 5.033 9.533 13.036 22.332 24.71 35.052 22.676 24.719 59.785 50.078 120.496 49.991l0.125 85.333c-88.622 0.126-147.515-38.41-183.503-77.637-17.663-19.253-29.658-38.442-37.292-52.901-3.835-7.266-6.629-13.449-8.527-18.005-0.951-2.282-1.682-4.167-2.212-5.589-0.265-0.712-0.48-1.308-0.646-1.783-0.084-0.237-0.155-0.443-0.215-0.618-0.030-0.088-0.057-0.167-0.081-0.239-0.012-0.036-0.023-0.069-0.034-0.101-0.005-0.015-0.013-0.038-0.015-0.046-0.007-0.022-0.014-0.043 40.463-13.535zM703.937 810.444c63.408-0.090 149.396-56.907 149.396-170.453h85.333c0 163.787-127.346 255.634-234.604 255.787l-0.125-85.333zM170.667 639.991c0 113.589 86.031 170.453 149.317 170.453v85.333c-107.348 0-234.65-92.060-234.65-255.787h85.333zM320.044 810.444c60.725 0.086 97.835-25.273 120.515-49.992 11.671-12.72 19.677-25.518 24.71-35.052 2.497-4.73 4.205-8.546 5.222-10.989 0.507-1.217 0.839-2.082 1.008-2.534 0.084-0.226 0.127-0.348 0.13-0.358 0.002-0.005-0.006 0.018-0.024 0.069-0.009 0.026-0.020 0.059-0.034 0.1-0.007 0.020-0.015 0.042-0.023 0.066-0.004 0.012-0.010 0.032-0.013 0.038-0.006 0.020-0.013 0.040 40.464 13.533s40.47 13.513 40.463 13.535c-0.003 0.008-0.010 0.031-0.015 0.046-0.011 0.032-0.022 0.066-0.034 0.101-0.024 0.072-0.051 0.151-0.081 0.239-0.060 0.175-0.131 0.381-0.215 0.618-0.167 0.474-0.382 1.071-0.646 1.782-0.53 1.422-1.261 3.308-2.212 5.589-1.899 4.557-4.692 10.739-8.528 18.005-7.634 14.459-19.63 33.649-37.294 52.902-35.991 39.228-94.89 77.762-183.514 77.636l0.122-85.333zM510.006 219.005c0.315 0.193 1.026 0.478 1.994 0.478s1.679-0.284 1.994-0.478l-44.406-72.869c26.224-15.98 58.6-15.98 84.824 0l-44.406 72.869zM853.333 639.991c0-40.082-11.321-80.236-31.215-119.857l76.26-38.291c24.354 48.497 40.289 101.772 40.289 158.148h-85.333zM527.304 229.786c-6.54-4.159-12.351-7.765-17.298-10.78l44.406-72.869c5.394 3.288 11.676 7.185 18.71 11.662l-45.818 71.987zM853.333 284.444h-85.333v-85.333c0-23.467-19.2-42.667-42.667-42.667s-42.667 19.2-42.667 42.667v85.333h-85.333c-23.467 0-42.667 19.2-42.667 42.667s19.2 42.667 42.667 42.667h85.333v85.333c0 23.467 19.2 42.667 42.667 42.667s42.667-19.2 42.667-42.667v-85.333h85.333c23.467 0 42.667-19.2 42.667-42.667s-19.2-42.667-42.667-42.667z" />
<glyph unicode="&#xe905;" glyph-name="addboost" d="M810.479 672.177h51.328c96.073 0 152.849-107.637 98.598-186.924l-267.149-390.451c-71.932-105.126-236.467-39.723-216.602 86.093l26.991 170.935h-51.328c-96.071 0-152.847 107.639-98.598 186.927l267.148 390.447c71.932 105.126 236.467 39.725 216.602-86.093l-26.991-170.933zM424.146 490.569c0 0 0 0 0 0-15.499-22.652 0.722-53.406 28.172-53.406h111.245c0 0 0 0 0 0 20.975 0 36.988-18.739 33.715-39.458l-36.335-230.118c0 0 0 0 0 0-5.675-35.942 41.331-54.635 61.884-24.602 0 0 0.004 0.004 0 0l267.153 390.451c0 0 0 0 0 0 15.497 22.656-0.721 53.41-28.173 53.41 0 0 0 0 0 0h-111.245c-20.975 0-36.988 18.737-33.715 39.455 0 0 0 0 0 0l36.335 230.118c5.675 35.948-41.335 54.635-61.888 24.599l-267.148-390.449zM256 341.333c0 23.565-19.103 42.667-42.667 42.667s-42.667-19.102-42.667-42.667v-85.333h-85.333c-23.564 0-42.667-19.102-42.667-42.667s19.103-42.667 42.667-42.667h85.333v-85.333c0-23.565 19.103-42.667 42.667-42.667s42.667 19.102 42.667 42.667v85.333h85.333c23.564 0 42.667 19.102 42.667 42.667s-19.103 42.667-42.667 42.667h-85.333v85.333z" />
<glyph unicode="&#xe906;" glyph-name="addmember_filled" d="M384 469.333c141.778 0 245.462-35.572 308.155-109.651 21.423-25.314 33.178-57.402 33.178-90.564v-55.786c0-47.128-38.205-85.333-85.333-85.333h-512c-47.128 0-85.333 38.205-85.333 85.333v55.786c0 33.162 11.756 65.25 33.179 90.564 62.693 74.079 166.377 109.65 308.155 109.65zM805.691 725.046l4.976 0.287c21.881 0 39.915-16.471 42.38-37.691l0.287-4.976v-85.333h85.333c21.881 0 39.915-16.471 42.38-37.691l0.287-4.976c0-21.881-16.471-39.915-37.691-42.38l-4.976-0.287h-85.333v-85.333c0-21.881-16.471-39.915-37.691-42.38l-4.976-0.287c-21.881 0-39.915 16.471-42.38 37.691l-0.287 4.976v85.333h-85.333c-21.881 0-39.915 16.471-42.38 37.691l-0.287 4.976c0 21.881 16.471 39.915 37.691 42.38l4.976 0.287h85.333v85.333c0 21.881 16.471 39.915 37.691 42.38v0zM384 896c94.257 0 170.667-76.41 170.667-170.667s-76.41-170.667-170.667-170.667c-94.257 0-170.667 76.41-170.667 170.667s76.41 170.667 170.667 170.667z" />
<glyph unicode="&#xe907;" glyph-name="adduser" d="M448 746.667c0 58.91 47.757 106.667 106.667 106.667s106.667-47.756 106.667-106.667c0-58.91-47.757-106.667-106.667-106.667s-106.667 47.756-106.667 106.667zM554.667 938.667c-106.039 0-192-85.961-192-192s85.961-192 192-192c106.039 0 192 85.961 192 192s-85.961 192-192 192zM340.538 378.189c46.649 25.617 115.607 48.478 214.128 48.478 171.618 0 254.976-69.431 286.921-105.024 7.138-7.953 11.746-20.877 11.746-39.475 0-38.016-30.818-68.834-68.834-68.834h-272.499c-23.565 0-42.667-19.102-42.667-42.667s19.102-42.667 42.667-42.667h272.499c85.146 0 154.167 69.022 154.167 154.167 0 31.053-7.543 67.473-33.57 96.474-46.366 51.657-152.051 133.359-350.43 133.359-112.38 0-195.535-26.244-255.205-59.017-20.655-11.341-28.203-37.282-16.86-57.937s37.282-28.203 57.937-16.858zM256 341.333c23.564 0 42.667-19.102 42.667-42.667v-85.333h85.333c23.564 0 42.667-19.102 42.667-42.667s-19.103-42.667-42.667-42.667h-85.333v-85.333c0-23.565-19.103-42.667-42.667-42.667s-42.667 19.102-42.667 42.667v85.333h-85.333c-23.564 0-42.667 19.102-42.667 42.667s19.103 42.667 42.667 42.667h85.333v85.333c0 23.565 19.103 42.667 42.667 42.667z" />
<glyph unicode="&#xe908;" glyph-name="admin" d="M500.48 896c7.625 1.281 15.415 1.281 23.040 0 14.665-2.83 28.971-7.266 42.667-13.227l203.093-72.107c16.759-4.304 32.841-10.909 47.787-19.627 5.329-4.614 9.434-10.478 11.947-17.067 3.622-17.1 4.629-34.651 2.987-52.053v-224c3.998-51.285 0.546-102.878-10.24-153.173-8.329-26.295-21.82-50.662-39.68-71.68-84.335 39.625-176.973 58.359-270.080 54.613-93.106 3.746-185.744-14.989-270.080-54.613-17.734 21.107-31.209 45.449-39.68 71.68-10.788 50.295-14.237 101.888-10.24 153.173v224c-1.6 17.261-0.593 34.665 2.987 51.627 2.511 6.589 6.615 12.452 11.947 17.067 14.923 8.867 31.005 15.616 47.787 20.053l203.52 71.253c13.521 6.224 27.686 10.946 42.24 14.080zM320 213.333c61.433 20.523 125.969 30.199 190.72 28.587 65.604 1.911 131.034-7.765 193.28-28.587l-51.627-32-56.747-33.707c-19.866-13.751-41.549-24.666-64.427-32.427-11.81-2.539-24.030-2.539-35.84 0-22.878 7.761-44.561 18.675-64.427 32.427l-56.747 33.707-54.187 32zM533.333 981.333c-14.165 1.826-28.501 1.826-42.667 0-19.797-3.653-39.117-9.521-57.6-17.493h-3.413l-203.52-72.96h-5.547c-25.25-7.932-48.722-20.683-69.12-37.547-15.867-13.193-28.31-30.027-36.267-49.067-7.38-24.745-10.27-50.61-8.533-76.373v-237.653c-3.894-57.297 0.998-114.85 14.507-170.667 12.778-39.249 33.553-75.422 61.013-106.24 41.524-40.201 89.019-73.737 140.8-99.413l6.827-3.84 61.867-36.693c26.193-17.609 54.989-30.997 85.333-39.68 23.625-5.073 48.055-5.073 71.68 0 30.345 8.683 59.14 22.071 85.333 39.68l5.12 2.987 56.747 33.707 6.827 3.84c51.179 25.826 98.086 59.354 139.093 99.413 27.563 31.066 48.341 67.541 61.013 107.093 13.508 55.817 18.402 113.37 14.507 170.667v236.8c1.737 25.763-1.152 51.629-8.533 76.373-7.347 18.82-19.042 35.634-34.133 49.067-20.706 15.499-44.16 26.936-69.12 33.707h-5.547l-205.653 75.52h-3.413c-18.432 8.412-37.751 14.71-57.6 18.773zM512 669.013c-16.879 0-33.374-5.005-47.407-14.381s-24.973-22.704-31.433-38.296c-6.455-15.593-8.147-32.75-4.855-49.304 3.294-16.55 11.422-31.757 23.356-43.691s27.14-20.062 43.691-23.356c16.555-3.29 33.711-1.6 49.306 4.855 15.59 6.46 28.919 17.399 38.293 31.433 9.378 14.033 14.383 30.528 14.383 47.407 0 22.632-8.99 44.337-24.994 60.34s-37.709 24.994-60.339 24.994zM341.333 583.68c0 33.755 10.009 66.751 28.762 94.817s45.408 49.941 76.594 62.858c31.185 12.917 65.498 16.297 98.607 9.712 33.105-6.585 63.514-22.839 87.381-46.708s40.124-54.278 46.707-87.384c6.588-33.108 3.209-67.42-9.711-98.605-12.915-31.185-34.79-57.843-62.857-76.595s-61.065-28.762-94.818-28.762c-45.265 0-88.673 17.98-120.68 49.988-32.006 32.004-49.987 75.413-49.987 120.678z" />
<glyph unicode="&#xe909;" glyph-name="ads" d="M282.634 635.865c-8.017-26.429-8.017-58.907-8.017-123.866v-7.301c0-31.413 0-47.119-2.458-62.095-4.645-28.3-15.764-55.144-32.491-78.439-8.852-12.327-20.030-23.507-42.388-45.865v-0.001c-15.456-15.456-23.185-23.185-25.033-29.406-3.448-11.602 1.702-24.034 12.343-29.8 5.706-3.092 16.552-3.092 38.245-3.092h307.783c64.957 0 97.436 0 123.865 8.017 59.504 18.051 106.069 64.615 124.119 124.12 8.017 26.429 8.017 58.907 8.016 123.865s0 97.435-8.017 123.863c-18.051 59.504-64.615 106.068-124.119 124.118-26.429 8.017-58.907 8.017-123.864 8.017s-97.437 0-123.866-8.017c-59.504-18.051-106.068-64.615-124.118-124.118zM482.225 460.582h-38.751c-32.498 0-58.843 26.345-58.843 58.842s26.345 58.842 58.842 58.842h38.752c4.89 0 7.335 0 9.708 0.258 6.535 0.708 12.829 2.868 18.423 6.321 2.030 1.254 3.96 2.755 7.82 5.757l40.562 31.549c24.38 18.962 36.57 28.442 46.804 28.355 8.904-0.075 17.294-4.179 22.819-11.16 6.352-8.026 6.352-23.468 6.352-54.354v-131.135c0-30.886 0-46.328-6.352-54.353-5.525-6.982-13.915-11.085-22.819-11.161-10.234-0.087-22.424 9.393-46.804 28.355l-40.561 31.549c-3.86 3.002-5.791 4.504-7.821 5.757-5.594 3.453-11.888 5.612-18.423 6.321-2.372 0.258-4.817 0.258-9.708 0.258zM443.473 418.122c0 7.641 0 11.461 1.385 14.423 1.46 3.123 3.971 5.635 7.095 7.095 2.962 1.385 6.782 1.385 14.424 1.385h13.036c7.641 0 11.462 0 14.423-1.385 3.123-1.46 5.635-3.971 7.095-7.095 1.384-2.962 1.384-6.782 1.384-14.423v-16.385c0-16.249-13.172-29.421-29.421-29.421s-29.421 13.172-29.421 29.421v16.385z" />
<glyph unicode="&#xe90a;" glyph-name="animals" d="M810.667 960c96.926 0 164.419-163.817 129.5-358.876 11.143-29.875 21.422-62.488 28.921-93.111l17.135 3.247c23.156 4.369 45.469-10.861 49.838-34.016 4.057-21.502-8.785-42.277-29.18-48.633l-4.836-1.205-20.804-3.897-0.104-7.182c-0.977-25.593-5.56-50.677-13.28-74.973l26.278-0.021c23.564 0 42.674-19.103 42.674-42.667 0-21.881-16.479-39.915-37.699-42.38l-4.976-0.287-67.99 0.006c-83.817-125.018-250.784-213.339-414.143-213.339s-330.326 88.321-414.143 213.339l-67.99-0.006c-23.564 0-42.674 19.103-42.674 42.667 0 21.881 16.479 39.915 37.699 42.38l4.976 0.287 26.278 0.021c-8.44 26.562-13.131 54.065-13.459 82.145l-20.729 3.907c-23.156 4.369-38.385 26.682-34.016 49.838 4.057 21.502 23.586 36.169 44.895 34.657l4.943-0.64 17.139-3.254c7.503 30.622 17.787 63.242 28.94 93.141-32.379 186.39 46.978 358.852 129.477 358.852 17.359 0 27.61-5.319 45.009-20.338l11.411-10.211 51.843-49.515 12.435-11.368c12.482-11.132 23.107-19.632 31.821-25.401l7.366-4.473 3.826-1.892c54.637 12.584 84.519 16.532 134.955 16.532 45.654 0 74.534-3.24 122.293-13.773l11.715-2.653 1.909 0.839 5.066 2.763c8.029 4.77 17.949 12.241 29.744 22.339l7.302 6.373c5.802 5.155 11.951 10.813 18.875 17.343l45.302 43.032 11.433 10.149c17.439 14.935 27.735 20.254 45.028 20.254zM816.059 870.432l-4.469-3.992-40.247-38.243-18.035-16.832-14.697-13.036c-45.014-38.925-75.751-55.542-108.247-45.254-50.417 11.689-74.298 14.926-118.364 14.926-43.553 0-67.306-3.156-116.584-14.535-34.799-10.775-65.671 5.831-109.757 44.008l-15.176 13.507-14.468 13.503-42.491 40.739c-9.797-11.374-19.612-26.886-27.946-45.412-25.153-55.917-32.966-128.078-15.739-214.28l2.445-12.233-8.611-22.36c-9.343-25.196-18.16-53.218-24.69-78.823l124.928-23.52c23.156-4.369 38.385-26.682 34.016-49.838-4.057-21.502-23.586-36.169-44.895-34.657l-4.943 0.64-119.052 22.448c2.376-22.395 8.77-44.477 18.546-65.818l108.417-0.036c23.564 0 42.667-19.103 42.667-42.667 0-21.881-16.471-39.915-37.691-42.38l-4.976-0.287-48.002 0.021c74.363-75.424 190.446-128.021 304.002-128.021s229.64 52.597 304.002 128.021l-48.002-0.021c-23.564 0-42.667 19.103-42.667 42.667 0 21.881 16.471 39.915 37.691 42.38l4.976 0.287 108.417 0.036c9.775 21.341 16.17 43.423 18.546 65.818l-119.052-22.448c-23.156-4.369-45.469 10.861-49.838 34.016-4.057 21.502 8.785 42.277 29.18 48.633l4.836 1.205 124.936 23.516c-6.533 25.627-15.354 53.67-24.698 78.864l-8.612 22.355 2.446 12.236c17.778 88.944 12.869 162.612-8.444 215.911-8.869 22.18-19.758 37.825-27.087 46.171l-2.571 2.786zM493.627 426.667h39.707l4.538-0.233 4.744-0.779 4.565-1.297 4.54-1.851 2.361-1.215 1.938-1.143 3.074-2.131 4.163-3.588c1.719-1.727 3.209-3.458 4.528-5.255l1.857-2.753c0.853-1.378 1.629-2.808 2.324-4.285l1.611-3.95 1.529-5.451 0.746-5.050 0.149-3.686-0.252-4.708-1.167-6.243-0.771-2.541-18.533-55.598 1.134-3.375c3.276-7.571 10.813-12.868 19.588-12.868 11.782 0 21.333 9.551 21.333 21.333 0 23.564 19.103 42.667 42.667 42.667s42.667-19.103 42.667-42.667c0-58.91-47.756-106.667-106.667-106.667-24.032 0-46.207 7.947-64.041 21.357-17.788-13.422-39.946-21.357-63.959-21.357-58.91 0-106.667 47.756-106.667 106.667 0 23.564 19.103 42.667 42.667 42.667s42.667-19.103 42.667-42.667c0-11.782 9.551-21.333 21.333-21.333 8.774 0 16.311 5.297 19.588 12.868l1.134 3.375-17.597 52.79c-7.824 23.473 4.861 48.844 28.334 56.668l4.767 1.266 3.304 0.606 6.096 0.427zM661.333 597.333c35.346 0 64-28.654 64-64s-28.654-64-64-64c-35.346 0-64 28.654-64 64s28.654 64 64 64zM362.667 597.333c35.346 0 64-28.654 64-64s-28.654-64-64-64c-35.346 0-64 28.654-64 64s28.654 64 64 64zM649.223 836.177l-3.214 0.729-1.561-0.614 1.78 0.168 1.633-0.071 1.363-0.212z" />
<glyph unicode="&#xe90b;" glyph-name="animations" d="M384 640c0 141.385 114.615 256 256 256s256-114.615 256-256c0-141.385-114.615-256-256-256s-256 114.615-256 256zM299.639 665.967c-0.645-8.571-0.973-17.231-0.973-25.967 0-78.878 26.755-151.509 71.686-209.306l-272.523-272.525c-16.662-16.661-16.662-43.678 0-60.339s43.677-16.661 60.34 0l272.524 272.521c57.796-44.928 130.428-71.684 209.306-71.684 8.738 0 17.395 0.329 25.967 0.973l-141.47-141.47c-16.661-16.661-16.661-43.678 0-60.339s43.678-16.661 60.339 0l298.667 298.667c4.224 4.224 7.377 9.114 9.459 14.332 54.916 60.578 88.371 140.966 88.371 229.171 0 188.513-152.819 341.333-341.333 341.333-88.205 0-168.593-33.456-229.172-88.37-5.217-2.083-10.107-5.236-14.331-9.46l-298.667-298.667c-16.662-16.661-16.662-43.678 0-60.339s43.677-16.661 60.34 0l141.469 141.469z" />
<glyph unicode="&#xe90c;" glyph-name="archive" d="M386.654 981.336c-44.388 0.015-75.092 0.026-103.905-8.203-25.435-7.264-49.298-19.195-70.371-35.185-23.871-18.113-42.285-42.682-68.905-78.202l-10.744-14.326c-13.178-17.557-23.142-30.831-30.372-45.781-6.384-13.201-11.040-27.17-13.853-41.561-3.186-16.299-3.18-32.896-3.171-54.848l0.001-3.494v-300.494c0-46.242-0.001-83.537 2.467-113.741 2.541-31.095 7.909-58.411 20.785-83.682 20.453-40.141 53.089-72.777 93.23-93.231 25.271-12.877 52.585-18.244 83.683-20.787 30.202-2.466 67.497-2.466 113.736-2.466h225.529c46.242 0 83.537 0 113.737 2.466 31.1 2.543 58.415 7.91 83.686 20.787 40.141 20.454 72.777 53.090 93.227 93.231 12.877 25.271 18.244 52.587 20.787 83.682 2.466 30.204 2.466 67.499 2.466 113.737v303.993c0.009 21.953 0.017 38.549-3.17 54.848-2.812 14.391-7.471 28.36-13.854 41.561-7.232 14.951-17.195 28.224-30.37 45.782l-2.099 2.795-8.644 11.53c-26.624 35.52-45.039 60.090-68.907 78.203-21.073 15.99-44.937 27.921-70.37 35.185-28.813 8.229-59.52 8.218-103.906 8.203h-250.692zM820.907 797.015c4.553-6.071 8.188-10.939 11.127-14.947-3.23 1.865-6.515 3.649-9.847 5.349-25.271 12.876-52.587 18.244-83.686 20.785-30.204 2.468-67.499 2.467-113.741 2.467v0h-225.52c-46.241 0-83.538 0.001-113.741-2.467-31.098-2.541-58.412-7.909-83.683-20.785-3.336-1.699-6.62-3.483-9.85-5.349 2.941 4.008 6.574 8.876 11.127 14.947l5.12 6.827c31.521 42.028 42.59 56.144 55.747 66.128 12.643 9.594 26.961 16.753 42.222 21.111 15.881 4.536 33.815 4.921 86.351 4.921h238.933c52.535 0 70.468-0.385 86.349-4.921 15.262-4.358 29.581-11.517 42.223-21.111 13.158-9.984 24.226-24.1 55.748-66.128l5.12-6.827zM853.333 469.333v-68.267c0-48.495-0.034-82.3-2.185-108.617-2.108-25.822-6.042-40.657-11.767-51.891-12.271-24.085-31.851-43.669-55.936-55.94-11.238-5.726-26.074-9.66-51.891-11.767-26.321-2.15-60.126-2.185-108.621-2.185h-221.867c-48.495 0-82.301 0.034-108.619 2.185-25.821 2.108-40.655 6.042-51.892 11.767-24.085 12.271-43.666 31.855-55.938 55.94-5.725 11.234-9.658 26.069-11.768 51.891-2.15 26.317-2.183 60.122-2.183 108.617v93.867c0 48.495 0.033 82.3 2.183 108.62 2.11 25.821 6.042 40.655 11.768 51.892 12.272 24.085 31.853 43.666 55.938 55.938 11.236 5.725 26.071 9.658 51.892 11.767 26.319 2.15 60.124 2.184 108.619 2.184h221.867c48.495 0 82.3-0.033 108.621-2.184 25.818-2.109 40.653-6.042 51.891-11.767 24.085-12.272 43.665-31.853 55.936-55.938 5.726-11.236 9.66-26.071 11.767-51.892 2.099-25.702 2.18-58.547 2.185-105.237v-28.983zM414.17 542.17c-16.662 16.666-43.677 16.666-60.34 0-16.662-16.661-16.662-43.678 0-60.339l128-128c16.661-16.661 43.678-16.661 60.339 0l128 128c16.661 16.661 16.661 43.678 0 60.339-16.661 16.666-43.678 16.666-60.339 0l-97.83-97.83-97.83 97.83z" />
<glyph unicode="&#xe90d;" glyph-name="arrow_down" d="M542.17 183.163l298.667 298.667c16.662 16.662 16.662 43.677 0 60.34-15.381 15.381-39.583 16.564-56.32 3.549l-4.020-3.549-225.83-225.839v494.336c0 21.881-16.471 39.915-37.691 42.38l-4.976 0.287c-21.881 0-39.915-16.471-42.38-37.691l-0.287-4.976v-494.336l-225.83 225.839c-15.381 15.381-39.583 16.564-56.32 3.549l-4.020-3.549c-15.381-15.381-16.564-39.583-3.549-56.32l3.549-4.020 298.667-298.667c15.381-15.381 39.583-16.564 56.32-3.549l4.020 3.549z" />
<glyph unicode="&#xe90e;" glyph-name="arrow_next" d="M840.837 542.17l-298.667 298.667c-16.662 16.662-43.677 16.662-60.34 0-15.381-15.381-16.564-39.583-3.549-56.32l3.549-4.020 225.839-225.83h-494.336c-21.881 0-39.915-16.471-42.38-37.691l-0.287-4.976c0-21.881 16.471-39.915 37.691-42.38l4.976-0.287h494.336l-225.839-225.83c-15.381-15.381-16.564-39.583-3.549-56.32l3.549-4.020c15.381-15.381 39.583-16.564 56.32-3.549l4.020 3.549 298.667 298.667c15.381 15.381 16.564 39.583 3.549 56.32l-3.549 4.020z" />
<glyph unicode="&#xe90f;" glyph-name="arrow_prev" d="M183.163 542.17l298.667 298.667c16.661 16.662 43.678 16.662 60.339 0 15.381-15.381 16.563-39.583 3.55-56.32l-3.55-4.020-225.839-225.83h494.336c21.879 0 39.915-16.469 42.381-37.692l0.286-4.975c0-21.879-16.469-39.915-37.692-42.381l-4.975-0.286h-494.336l225.839-225.83c15.381-15.381 16.563-39.582 3.55-56.32l-3.55-4.019c-15.381-15.381-39.582-16.563-56.32-3.55l-4.019 3.55-298.667 298.667c-15.38 15.381-16.564 39.582-3.549 56.32l3.549 4.019z" />
<glyph unicode="&#xe910;" glyph-name="arrowcircle" d="M512 817.923c-168.956 0-305.921-136.965-305.921-305.923 0-168.951 136.965-305.92 305.921-305.92s305.92 136.969 305.92 305.92c0 168.958-136.964 305.923-305.92 305.923zM135.252 512c0 208.075 168.675 376.75 376.748 376.75s376.747-168.675 376.747-376.75c0-208.068-168.674-376.747-376.747-376.747s-376.748 168.678-376.748 376.747zM512 701.015c19.558 0 35.413-15.855 35.413-35.413v-221.706l76.079 76.079c13.828 13.828 36.254 13.828 50.082 0s13.828-36.254 0-50.082l-136.533-136.533c-13.828-13.828-36.254-13.828-50.082 0l-136.534 136.533c-13.83 13.828-13.83 36.254 0 50.082s36.252 13.828 50.082 0l76.080-76.079v221.706c0 19.558 15.855 35.413 35.413 35.413z" />
<glyph unicode="&#xe911;" glyph-name="arrowhead" d="M183.163 691.503c16.663 16.662 43.677 16.662 60.34 0l268.497-268.497 268.497 268.497c16.661 16.662 43.678 16.662 60.339 0s16.661-43.677 0-60.34l-298.667-298.666c-16.661-16.661-43.678-16.661-60.339 0l-298.667 298.666c-16.662 16.663-16.662 43.677 0 60.34z" />
<glyph unicode="&#xe912;" glyph-name="attach" d="M487.863 872.273c97.911 99.867 258.739 99.867 356.646 0 79.42-81.006 79.42-210.667 0-291.674l-307.443-313.587c-52.194-53.239-137.935-53.239-190.131 0-63.401 64.666-63.402 168.179-0.002 232.849l150.466 153.48c16.499 16.827 43.511 17.094 60.339 0.598s17.092-43.51 0.597-60.335l-150.467-153.485c-30.868-31.484-30.868-81.882 0.001-113.37 18.74-19.115 49.526-19.115 68.265 0l307.443 313.59c46.886 47.823 46.886 124.371 0 172.194-64.452 65.742-170.325 65.742-234.778 0l-266.851-272.186c-85.451-87.159-85.451-226.667 0-313.826 87.878-89.634 232.227-89.634 320.104 0l156.898 160.043c16.499 16.823 43.511 17.092 60.339 0.597 16.823-16.499 17.092-43.511 0.597-60.339l-156.898-160.038c-121.335-123.759-320.64-123.763-441.974-0.004-117.983 120.346-117.983 312.969 0 433.309l266.849 272.184z" />
<glyph unicode="&#xe913;" glyph-name="audio_repeat" d="M609.83 840.837c16.661 16.662 43.678 16.662 60.339 0l85.333-85.333c16.661-16.663 16.661-43.677 0-60.34s-43.678-16.662-60.339 0l-85.333 85.333c-16.661 16.663-16.661 43.677 0 60.34zM755.503 755.503c16.661-16.663 16.661-43.677 0-60.34l-85.333-85.333c-16.661-16.661-43.678-16.661-60.339 0-16.661 16.663-16.661 43.677 0 60.34l85.333 85.333c16.661 16.662 43.678 16.662 60.339 0zM256 682.667c-23.564 0-42.667-19.103-42.667-42.667v-128c0-23.565-19.103-42.667-42.667-42.667s-42.667 19.102-42.667 42.667v128c0 70.692 57.308 128 128 128h384c23.565 0 42.667-19.103 42.667-42.667s-19.102-42.667-42.667-42.667h-384zM414.17 183.164c-16.663-16.661-43.677-16.661-60.34 0l-85.333 85.333c-16.662 16.661-16.662 43.678 0 60.339s43.677 16.661 60.34 0l85.333-85.333c16.661-16.661 16.661-43.678 0-60.339zM268.497 268.497c-16.662 16.661-16.662 43.678 0 60.339l85.333 85.333c16.663 16.661 43.677 16.661 60.34 0 16.661-16.661 16.661-43.678 0-60.339l-85.333-85.333c-16.663-16.661-43.677-16.661-60.34 0zM768 341.333c23.565 0 42.667 19.102 42.667 42.667v128c0 23.565 19.102 42.667 42.667 42.667s42.667-19.102 42.667-42.667v-128c0-70.694-57.306-128-128-128h-384c-23.564 0-42.667 19.102-42.667 42.667s19.102 42.667 42.667 42.667h384z" />
<glyph unicode="&#xe914;" glyph-name="audio_repeat_single" d="M524.497 840.837c16.661 16.662 43.678 16.662 60.339 0l85.333-85.333c16.661-16.663 16.661-43.677 0-60.34s-43.678-16.662-60.339 0l-85.333 85.333c-16.661 16.663-16.661 43.677 0 60.34zM670.17 755.503c16.661-16.663 16.661-43.677 0-60.34l-85.333-85.333c-16.661-16.661-43.678-16.661-60.339 0-16.661 16.663-16.661 43.677 0 60.34l85.333 85.333c16.661 16.662 43.678 16.662 60.339 0zM256 682.667c-23.564 0-42.667-19.103-42.667-42.667v-128c0-23.565-19.103-42.667-42.667-42.667s-42.667 19.102-42.667 42.667v128c0 70.692 57.308 128 128 128h341.333c23.565 0 42.667-19.103 42.667-42.667s-19.102-42.667-42.667-42.667h-341.333zM891.494 893.738c10.539-21.076 1.997-46.705-19.081-57.243l-85.333-42.667c-21.077-10.538-46.703-1.995-57.242 19.081s-1.997 46.705 19.081 57.243l85.333 42.667c21.077 10.538 46.703 1.995 57.242-19.081zM853.333 917.333c23.565 0 42.667-19.103 42.667-42.667v-213.333c0-23.564-19.102-42.667-42.667-42.667s-42.667 19.103-42.667 42.667v213.333c0 23.564 19.102 42.667 42.667 42.667zM414.17 183.164c-16.663-16.661-43.677-16.661-60.34 0l-85.333 85.333c-16.662 16.661-16.662 43.678 0 60.339s43.677 16.661 60.34 0l85.333-85.333c16.661-16.661 16.661-43.678 0-60.339zM268.497 268.497c-16.662 16.661-16.662 43.678 0 60.339l85.333 85.333c16.663 16.661 43.677 16.661 60.34 0 16.661-16.661 16.661-43.678 0-60.339l-85.333-85.333c-16.663-16.661-43.677-16.661-60.34 0zM768 341.333c23.565 0 42.667 19.102 42.667 42.667v128c0 23.565 19.102 42.667 42.667 42.667s42.667-19.102 42.667-42.667v-128c0-70.694-57.306-128-128-128h-384c-23.564 0-42.667 19.102-42.667 42.667s19.102 42.667 42.667 42.667h384z" />
<glyph unicode="&#xe915;" glyph-name="author_hidden" d="M782.966 532.603l58.558-73.942c0.929-1.159 1.644-2.473 2.12-3.882 2.296-6.783-1.343-14.143-8.126-16.439-20.129-6.806-38.884-15.589-56.259-26.349-17.448-10.801-32.047-22.693-43.799-35.673-0.375-0.394-0.717-0.821-1.028-1.267-4.104-5.871-2.67-13.955 3.195-18.062l19.299-13.447c2.401-1.64 4.16-4.056 5.010-6.836 2.092-6.849-1.765-14.097-8.615-16.189-52.789-16.035-102.982-36.53-150.581-61.487-41.045-21.521-77.562-44.445-109.553-68.773-3.459-2.636-8.010-3.356-12.115-1.923-6.762 2.361-10.329 9.755-7.97 16.515l1.69 4.716c16.014 43.861 39.93 83.333 71.746 118.414 42.395 46.751 95.105 81.821 158.125 105.214v73.21c-0.009 3.379 2.581 6.199 5.951 6.478 11.954 0.973 23.178 3.203 33.674 6.69 10.449 3.47 20.486 8.291 30.109 14.457 2.799 1.794 6.502 1.178 8.569-1.426zM257.276 534.991l47.696-14.579c10.617-47.817 28.090-89.6 52.417-125.351 22.526-33.102 53.927-65.435 94.202-97.005 5.469-4.265 6.601-12.079 2.581-17.73l-13.2-18.491c-3.702-5.183-10.619-6.912-16.323-4.077l-155.049 77.029c-1.989 0.988-3.692 2.471-4.944 4.306-4.035 5.916-2.511 13.983 3.406 18.019l14.057 9.586c1.496 1.020 2.763 2.344 3.719 3.886 3.77 6.089 1.891 14.080-4.198 17.852l-97.148 60.154c-0.826 0.512-1.592 1.113-2.283 1.796-5.096 5.031-5.149 13.242-0.118 18.337l62.167 62.976c3.391 3.434 8.404 4.701 13.018 3.292zM664.153 512.271c4.050-6.817 6.309-14.402 6.309-22.395 0-29.673-31.13-53.728-69.531-53.728s-69.531 24.055-69.531 53.728c0 3.99 0.563 7.879 1.631 11.621 46.192 0.929 89.771 4.587 128.808 10.418l2.315 0.357zM358.332 511.807c39.79-5.915 84.271-9.565 131.408-10.371l0.341-1.267c0.838-3.33 1.276-6.772 1.276-10.293 0-29.673-31.131-53.728-69.531-53.728s-69.531 24.055-69.531 53.728c0 7.813 2.158 15.235 6.038 21.931zM592.090 840.691c36.788 0 60.496-57.174 71.119-171.518 69.057-13.701 114.273-36.521 114.273-62.358 0-41.893-118.86-75.852-265.481-75.852s-265.481 33.959-265.481 75.852c0 25.85 45.261 48.68 114.375 62.375 12.844 114.335 36.714 171.501 71.617 171.501 53.185 0 32.787-65.823 77.708-65.823s25.814 65.823 81.871 65.823z" />
<glyph unicode="&#xe916;" glyph-name="avatarnext" d="M761.98 546.264l-431.24 431.564c-18.92 18.896-49.576 18.896-68.548 0-18.92-18.896-18.92-49.584 0-68.48l397.032-397.324-396.984-397.32c-18.92-18.9-18.92-49.588 0-68.532 18.92-18.896 49.628-18.896 68.548 0l431.24 431.564c18.64 18.7 18.64 49.876-0.048 68.528v0z" />
<glyph unicode="&#xe917;" glyph-name="avatarprevious" d="M262.016 477.732l431.24-431.564c18.924-18.896 49.58-18.896 68.552 0 18.92 18.896 18.92 49.584 0 68.48l-397.036 397.324 396.988 397.32c18.92 18.9 18.92 49.588 0 68.532-18.92 18.896-49.628 18.896-68.552 0l-431.24-431.56c-18.632-18.7-18.632-49.876 0.048-68.532z" />
<glyph unicode="&#xe918;" glyph-name="binfilled" d="M396.497 926.17c8.002 8.001 18.854 12.497 30.17 12.497h170.667c11.315 0 22.17-4.495 30.17-12.497l30.17-30.17h152.994c23.565 0 42.667-19.103 42.667-42.667s-19.102-42.667-42.667-42.667h-597.333c-23.564 0-42.667 19.103-42.667 42.667s19.103 42.667 42.667 42.667h152.994l30.17 30.17zM766.037 720.683c-9.126 4.65-21.073 4.65-44.971 4.65h-418.133c-23.895 0-35.843 0-44.97-4.65-8.028-4.091-14.555-10.618-18.646-18.646-4.65-9.127-4.65-21.075-4.65-44.97v-324.267c0-71.689 0-107.529 13.951-134.912 12.272-24.085 31.853-43.665 55.938-55.936 27.38-13.952 63.224-13.952 134.911-13.952h145.067c71.689 0 107.529 0 134.912 13.952 24.085 12.271 43.665 31.851 55.936 55.936 13.952 27.383 13.952 63.223 13.952 134.912v324.267c0 23.895 0 35.843-4.651 44.97-4.092 8.028-10.615 14.555-18.645 18.646z" />
<glyph unicode="&#xe919;" glyph-name="bold" d="M665.6 520.96c41.387 28.587 70.4 75.52 70.4 119.040 0 96.427-74.667 170.667-170.667 170.667h-224c-23.467 0-42.667-19.2-42.667-42.667v-512c0-23.467 19.2-42.667 42.667-42.667h246.613c88.32 0 168.96 72.107 169.39 160.853 0.423 65.28-36.27 121.173-91.737 146.773zM426.667 704h128c35.413 0 64-28.587 64-64s-28.587-64-64-64h-128v128zM576 320h-149.333v128h149.333c35.413 0 64-28.587 64-64s-28.587-64-64-64z" />
<glyph unicode="&#xe91a;" glyph-name="bomb" d="M180.178 771.786c4.066 15.174 19.663 24.179 34.837 20.113l64.109-17.178c15.174-4.066 24.179-19.663 20.113-34.837s-19.663-24.179-34.837-20.113l-64.109 17.178c-15.174 4.066-24.179 19.663-20.113 34.838zM436.618 703.074c4.066 15.175 19.663 24.179 34.836 20.114l64.11-17.178c15.174-4.066 24.179-19.663 20.113-34.837s-19.664-24.179-34.837-20.114l-64.109 17.178c-15.175 4.066-24.179 19.663-20.113 34.837zM352.476 889.133c-4.066 15.174-19.663 24.179-34.837 20.113s-24.179-19.663-20.113-34.837l17.178-64.109c4.066-15.174 19.663-24.179 34.838-20.113s24.179 19.663 20.113 34.837l-17.178 64.109zM418.211 771.764c-11.108 11.109-11.108 29.119 0 40.227l46.93 46.931c11.108 11.108 29.119 11.108 40.227 0s11.108-29.119 0-40.227l-46.931-46.931c-11.108-11.108-29.119-11.108-40.227 0zM368.176 749.709c-7.543-0.001-14.777-2.999-20.111-8.334-41.646-41.646-48.429-105.544-20.349-154.439l-6.484-6.484c-25.92-25.92-25.92-67.943 0-93.862l13.65-13.65c-40.945-96.642-22.026-212.616 56.754-291.401 103.677-103.674 271.774-103.674 375.448 0 103.68 103.68 103.68 271.775 0 375.45-78.785 78.785-194.765 97.7-291.413 56.748l-13.647 13.647c-25.137 25.137-65.422 25.896-91.473 2.276-7.707 24.396-1.795 51.963 17.736 71.494 5.333 5.334 8.329 12.568 8.329 20.111s-2.996 14.777-8.329 20.111c-5.334 5.335-12.568 8.333-20.111 8.334zM441.953 506.708c5.333 5.335 12.567 8.333 20.111 8.334 7.543-0.001 14.778-2.999 20.111-8.334s8.329-12.568 8.329-20.111-2.996-14.777-8.329-20.111c-53.927-53.928-53.927-140.518 0-194.443 5.333-5.336 8.329-12.567 8.329-20.11s-2.996-14.78-8.329-20.11c-5.334-5.336-12.568-8.334-20.111-8.334s-14.777 2.998-20.111 8.334c-75.669 75.662-75.669 199.219 0 274.886z" />
<glyph unicode="&#xe91b;" glyph-name="boost" d="M613.224 597.401c-20.974 0-36.987 18.739-33.716 39.457l45.608 288.85c5.676 35.948-41.335 54.634-61.886 24.598l-321.69-470.162c-15.5-22.656 0.722-53.407 28.17-53.407h141.461c20.974 0 36.987-18.739 33.716-39.46l-45.608-288.85c-5.676-35.948 41.335-54.63 61.886-24.596l321.688 470.162c15.503 22.653-0.722 53.408-28.17 53.408h-141.459z" />
<glyph unicode="&#xe91c;" glyph-name="boostcircle" d="M512 42.667c259.204 0 469.333 210.129 469.333 469.333 0 259.206-210.129 469.333-469.333 469.333-259.206 0-469.333-210.128-469.333-469.333 0-259.204 210.128-469.333 469.333-469.333zM558.17 597.838c-2.249-14.243 8.759-27.128 23.177-27.128h97.259c18.871 0 30.020-21.141 19.366-36.719l-221.158-323.234c-14.131-20.651-46.455-7.804-42.551 16.909l31.356 198.592c2.249 14.242-8.755 27.127-23.177 27.127h-97.257c-18.871 0-30.024 21.141-19.367 36.719l221.161 323.234c14.131 20.65 46.451 7.803 42.547-16.911l-31.356-198.589z" />
<glyph unicode="&#xe91d;" glyph-name="botcom" d="M789.333 981.333c106.039 0 192-85.961 192-192 0-103.009-81.119-187.072-182.962-191.791l-9.038-0.209h-106.667v-170.667h106.667c103.009 0 187.072-81.119 191.791-182.962l0.209-9.038c0-106.039-85.961-192-192-192-103.009 0-187.072 81.119-191.791 182.962l-0.209 9.038v106.667h-170.667v-106.667c0-103.009-81.119-187.072-182.962-191.791l-9.038-0.209c-106.039 0-192 85.961-192 192 0 103.009 81.119 187.072 182.962 191.791l9.038 0.209h106.667v170.667h-106.667c-103.009 0-187.072 81.119-191.791 182.962l-0.209 9.038c0 106.039 85.961 192 192 192 103.009 0 187.072-81.119 191.791-182.962l0.209-9.038v-106.667h170.667v106.667c0 103.009 81.119 187.072 182.962 191.791l9.038 0.209zM341.333 341.333h-106.667c-58.91 0-106.667-47.756-106.667-106.667s47.756-106.667 106.667-106.667c56.554 0 102.828 44.012 106.44 99.653l0.227 7.013v106.667zM789.333 341.333h-106.667v-106.667c0-58.91 47.756-106.667 106.667-106.667s106.667 47.756 106.667 106.667c0 56.554-44.012 102.828-99.653 106.44l-7.013 0.227zM597.333 597.333h-170.667v-170.667h170.667v170.667zM234.667 896c-58.91 0-106.667-47.756-106.667-106.667 0-56.554 44.012-102.828 99.653-106.44l7.013-0.227h106.667v106.667c0 54.198-40.421 98.954-92.761 105.768l-6.892 0.671-7.013 0.227zM789.333 896c-56.554 0-102.828-44.012-106.44-99.653l-0.227-7.013v-106.667h106.667c54.198 0 98.954 40.421 105.768 92.761l0.671 6.892 0.227 7.013c0 58.91-47.756 106.667-106.667 106.667z" />
<glyph unicode="&#xe91e;" glyph-name="bots" d="M512 981.333c21.881 0 39.915-16.471 42.38-37.691l0.287-4.976v-42.667h21.333c138.172 0 250.776-109.465 255.823-246.403l0.177-9.597v-85.333h21.333l7.521-0.217c64.703-3.749 116.513-55.559 120.262-120.262l0.217-7.521v-128l-0.287-4.976c-2.465-21.22-20.499-37.691-42.38-37.691s-39.915 16.471-42.38 37.691l-0.287 4.976v128l-0.287 4.976c-2.275 19.587-17.816 35.129-37.404 37.404l-4.976 0.287h-21.333v-213.333c0-91.4-71.849-166.019-162.149-170.458l-8.518-0.209h-298.667c-91.4 0-166.019 71.849-170.458 162.149l-0.209 8.518v213.333h-21.333c-21.881 0-39.915-16.471-42.38-37.691l-0.287-4.976v-128c0-23.564-19.103-42.667-42.667-42.667-21.881 0-39.915 16.471-42.38 37.691l-0.287 4.976v128c0 68.168 53.287 123.89 120.479 127.783l7.521 0.217h21.333v85.333c0 138.172 109.465 250.776 246.403 255.823l9.597 0.177h21.333v42.667c0 23.564 19.103 42.667 42.667 42.667zM711.521 469.551l-7.521-0.217h-384c-14.959 0-29.319 2.566-42.667 7.282v-220.615c0-44.986 34.811-81.842 78.965-85.099l6.369-0.234h298.667c44.986 0 81.842 34.811 85.099 78.965l0.234 6.369 0.038 220.63c-11.104-3.929-22.912-6.369-35.184-7.080zM576 810.667h-128c-91.4 0-166.019-71.849-170.458-162.149l-0.209-8.518v-42.667c0-21.881 16.471-39.915 37.691-42.38l4.976-0.287h384c21.881 0 39.915 16.471 42.38 37.691l0.287 4.976v42.667c0 91.4-71.849 166.019-162.149 170.458l-8.518 0.209zM405.333 704c23.564 0 42.667-19.103 42.667-42.667s-19.103-42.667-42.667-42.667c-23.564 0-42.667 19.103-42.667 42.667s19.103 42.667 42.667 42.667zM618.667 704c23.564 0 42.667-19.103 42.667-42.667s-19.103-42.667-42.667-42.667c-23.564 0-42.667 19.103-42.667 42.667s19.103 42.667 42.667 42.667z" />
<glyph unicode="&#xe91f;" glyph-name="bubblereply" d="M396.497 755.503c-16.662-16.663-16.662-43.677 0-60.34s43.678-16.662 60.34 0l128 128c16.661 16.663 16.661 43.677 0 60.34l-128 128c-16.661 16.662-43.677 16.662-60.34 0s-16.662-43.677 0-60.34l55.164-55.163h-152.994c-117.821 0-213.333-95.513-213.333-213.333v-128c0-23.565 19.102-42.667 42.667-42.667s42.667 19.102 42.667 42.667v128c0 70.692 57.308 128 128 128h152.994l-55.164-55.163zM806.741 801.366c-16.235 8.273-27.26 9.301-102.741 9.301-23.565 0-42.667 19.103-42.667 42.667s19.102 42.667 42.667 42.667l9.647 0.005c61.653 0.047 95.177 0.072 131.836-18.606 32.111-16.363 58.219-42.471 74.581-74.584 10.551-20.707 14.758-42.754 16.717-66.736 1.886-23.091 1.886-51.437 1.886-85.782v-191.258c0-34.347 0-62.69-1.886-85.781-1.958-23.983-6.165-46.029-16.717-66.739-16.363-32.111-42.47-58.219-74.581-74.581-20.71-10.551-42.756-14.758-66.739-16.717-23.091-1.886-51.435-1.886-85.781-1.886h-337.742c-22.903 0-27.4-0.273-31.168-1.178-4.353-1.045-8.515-2.769-12.333-5.111-3.304-2.022-6.678-5.009-22.873-21.205l-130.677-130.675c-12.203-12.203-30.554-15.855-46.498-9.25s-26.339 22.161-26.339 39.42v298.667c0 23.565 19.103 42.667 42.667 42.667s42.667-19.102 42.667-42.667v-195.661l60.352 60.356c12.265 12.288 23.078 23.121 36.114 31.108v0c11.453 7.019 23.938 12.19 36.999 15.326 14.867 3.571 30.173 3.554 47.535 3.541l3.554-0.004h335.98c36.548 0 61.393 0.034 80.597 1.604 18.705 1.527 28.271 4.297 34.944 7.697 16.055 8.179 29.111 21.235 37.291 37.291 3.401 6.673 6.17 16.239 7.697 34.944 1.57 19.204 1.604 44.049 1.604 80.597v187.733c0 36.547-0.034 61.392-1.604 80.596-1.527 18.706-4.297 28.272-7.697 34.945-8.179 16.057-21.235 29.111-37.291 37.292z" />
<glyph unicode="&#xe920;" glyph-name="bug" d="M367.484 972.386l4.020-3.549 51.847-51.79c26.001 13.776 56.434 21.62 88.65 21.62s62.649-7.844 88.65-21.62l51.847 51.79c16.662 16.662 43.677 16.662 60.34 0 15.381-15.381 16.564-39.583 3.549-56.32l-3.549-4.020-49.558-49.622c12.354-20.606 19.388-44.198 19.388-69.541 0-14.158-2.247-27.985-6.534-41.167 33.612-28.393 62.406-65.336 84.611-108.296l121.776 40.608 4.811 1.301 4.826 0.723c19.28 1.765 37.945-9.848 44.332-29.009 6.919-20.758-3.004-43.075-22.355-52.124l-4.63-1.846-117.35-39.122c8.305-28.92 13.984-59.433 16.692-91.027l129.831-0.041 4.976-0.287c21.22-2.465 37.691-20.499 37.691-42.38s-16.471-39.915-37.691-42.38l-4.976-0.287-129.828 0.002c-2.707-31.61-8.387-62.137-16.696-91.070l117.35-39.122 4.63-1.846c19.351-9.048 29.274-31.366 22.355-52.124s-28.248-32.658-49.158-28.286l-4.811 1.301-121.776 40.608c-53-102.54-143.535-170.797-248.744-170.797-105.194 0-195.719 68.238-248.721 170.754l-121.786-40.565c-22.355-7.452-46.518 4.63-53.97 26.985-6.919 20.758 3.004 43.075 22.355 52.124l4.63 1.846 117.338 39.122c-8.309 28.933-13.99 59.46-16.696 91.070l-129.816-0.002c-23.564 0-42.667 19.103-42.667 42.667 0 21.881 16.471 39.915 37.691 42.38l4.976 0.287 129.82 0.041c2.708 31.594 8.387 62.108 16.692 91.027l-117.338 39.122c-22.355 7.452-34.436 31.615-26.985 53.97 6.387 19.161 25.052 30.775 44.332 29.009l4.826-0.723 4.811-1.301 121.786-40.565c22.202 42.942 50.988 79.87 84.677 108.287-4.372 13.132-6.623 26.966-6.623 41.134 0 25.343 7.034 48.935 19.388 69.541l-49.558 49.622c-16.662 16.662-16.662 43.677 0 60.34 15.381 15.381 39.583 16.564 56.32 3.549zM512 725.333c-114.718 0-213.333-131.487-213.333-298.667s98.615-298.667 213.333-298.667c114.718 0 213.333 131.487 213.333 298.667s-98.615 298.667-213.333 298.667zM512 853.333c-45.859 0-81.053-27.119-84.97-58.232 26.849 10.146 55.327 15.565 84.97 15.565s58.122-5.419 84.924-15.496c-3.87 31.044-39.065 58.163-84.924 58.163z" />
<glyph unicode="&#xe921;" glyph-name="calendar" d="M768 981.333v-48.721c19.332-3.293 37.218-8.553 54.187-17.198 40.141-20.453 72.777-53.089 93.227-93.23 12.877-25.271 18.244-52.586 20.787-83.683 2.466-30.202 2.466-67.501 2.466-113.74v-225.524c0-46.242 0-83.537-2.466-113.737-2.543-31.1-7.91-58.415-20.787-83.686-20.45-40.141-53.086-72.777-93.227-93.227-25.271-12.877-52.587-18.244-83.686-20.787-30.199-2.466-67.499-2.466-113.741-2.466h-225.524c-46.239 0-83.535 0-113.736 2.466-31.098 2.543-58.412 7.91-83.683 20.787-40.141 20.45-72.777 53.086-93.23 93.227-12.876 25.271-18.244 52.587-20.785 83.686-2.468 30.204-2.467 67.499-2.467 113.741v225.519c0 46.241-0.001 83.539 2.467 113.741 2.541 31.098 7.909 58.412 20.785 83.683 20.453 40.141 53.089 72.777 93.23 93.23 16.965 8.644 34.851 13.905 54.185 17.198v48.721c0 23.564 19.103 42.667 42.667 42.667s42.667-19.103 42.667-42.667v-42.901c17.556 0.235 36.8 0.234 57.907 0.234h225.519c21.107 0 40.35 0 57.907-0.234v42.901c0 23.564 19.102 42.667 42.667 42.667s42.667-19.103 42.667-42.667zM240.556 839.382c-24.085-12.272-43.666-31.853-55.938-55.938-5.725-11.236-9.658-26.071-11.767-51.892-1.133-13.866-1.678-29.81-1.94-48.886h682.18c-0.26 19.076-0.806 35.020-1.941 48.886-2.108 25.821-6.042 40.655-11.767 51.892-12.271 24.085-31.851 43.666-55.936 55.938-11.238 5.725-26.074 9.658-51.891 11.767-26.321 2.15-60.126 2.184-108.621 2.184h-221.867c-48.495 0-82.301-0.033-108.619-2.184-25.821-2.109-40.655-6.042-51.892-11.767zM170.667 597.333v-196.267c0-48.495 0.033-82.3 2.184-108.621 2.109-25.818 6.042-40.653 11.767-51.891 12.272-24.085 31.853-43.665 55.938-55.936 11.236-5.726 26.071-9.66 51.892-11.767 26.319-2.15 60.124-2.185 108.619-2.185h221.867c48.495 0 82.3 0.034 108.621 2.185 25.818 2.108 40.653 6.042 51.891 11.767 24.085 12.271 43.665 31.851 55.936 55.936 5.726 11.238 9.66 26.074 11.767 51.891 2.15 26.321 2.185 60.126 2.185 108.621v196.267h-682.667z" />
<glyph unicode="&#xe922;" glyph-name="calendarfilter" d="M682.667 846.080c18.054 0 32.952-13.51 35.137-30.971l0.276-4.442v-49.92h7.253c64.217 0 116.725-50.13 120.526-113.391l0.22-7.356v-341.333c0-64.217-50.13-116.725-113.391-120.526l-7.356-0.22h-426.667c-64.217 0-116.725 50.13-120.526 113.391l-0.22 7.356v341.333c0 64.217 50.13 116.725 113.391 120.526l7.356 0.22h7.253v49.92c0 19.558 15.855 35.413 35.413 35.413 18.054 0 32.952-13.51 35.137-30.971l0.276-4.442v-49.92h270.507v49.92c0 19.558 15.855 35.413 35.413 35.413zM775.253 519.253h-526.507v-220.587c0-25.732 19.469-46.917 44.481-49.627l5.439-0.293h426.667c25.732 0 46.917 19.469 49.627 44.481l0.293 5.439v220.587zM725.333 689.92h-426.667c-25.732 0-46.917-19.469-49.627-44.481l-0.293-5.439v-49.92h526.507v49.92c0 25.732-19.469 46.917-44.481 49.627l-5.439 0.293z" />
<glyph unicode="&#xe923;" glyph-name="camera" d="M622.327 938.667c22.632 0 44.337-8.99 60.34-24.994l60.34-60.34h67.66c70.692 0 128-57.308 128-128v-469.333c0-70.692-57.308-128-128-128h-597.333c-70.692 0-128 57.308-128 128v469.333c0 70.692 57.308 128 128 128h67.66l60.34 60.34c16.003 16.003 37.708 24.994 60.34 24.994h220.654zM622.327 853.333h-220.654l-60.34-60.34c-16.003-16.003-37.708-24.994-60.34-24.994h-67.66c-23.564 0-42.667-19.103-42.667-42.667v-469.333c0-23.564 19.103-42.667 42.667-42.667h597.333c23.564 0 42.667 19.103 42.667 42.667v469.333c0 23.564-19.103 42.667-42.667 42.667h-67.66c-22.632 0-44.337 8.99-60.34 24.994l-60.34 60.34zM512 725.333c117.821 0 213.333-95.513 213.333-213.333s-95.513-213.333-213.333-213.333c-117.821 0-213.333 95.513-213.333 213.333s95.513 213.333 213.333 213.333zM512 640c-70.692 0-128-57.308-128-128s57.308-128 128-128c70.692 0 128 57.308 128 128s-57.308 128-128 128z" />
<glyph unicode="&#xe924;" glyph-name="cameraadd" d="M848.357 341.046l4.976 0.287c21.881 0 39.915-16.471 42.38-37.691l0.287-4.976v-85.333h85.333c21.881 0 39.915-16.471 42.38-37.691l0.287-4.976c0-21.881-16.471-39.915-37.691-42.38l-4.976-0.287h-85.333v-85.333c0-21.881-16.471-39.915-37.691-42.38l-4.976-0.287c-21.881 0-39.915 16.471-42.38 37.691l-0.287 4.976v85.333h-85.333c-21.881 0-39.915 16.471-42.38 37.691l-0.287 4.976c0 21.881 16.471 39.915 37.691 42.38l4.976 0.287h85.333v85.333c0 21.881 16.471 39.915 37.691 42.38v0zM359.006 938.667h220.654c20.117 0 39.502-7.104 54.801-19.922l5.539-5.072 60.34-60.34h67.66c68.168 0 123.89-53.287 127.783-120.479l0.217-7.521v-213.333c0-23.564-19.103-42.667-42.667-42.667-21.881 0-39.915 16.471-42.38 37.691l-0.287 4.976v213.333c0 21.881-16.471 39.915-37.691 42.38l-4.976 0.287h-67.66c-20.117 0-39.502 7.104-54.801 19.922l-5.539 5.072-60.34 60.34h-220.654l-60.34-60.34c-14.225-14.225-32.955-22.909-52.837-24.663l-7.503-0.33h-67.66c-21.881 0-39.915-16.471-42.38-37.691l-0.287-4.976v-469.333c0-21.881 16.471-39.915 37.691-42.38l4.976-0.287h384c23.564 0 42.667-19.103 42.667-42.667 0-21.881-16.471-39.915-37.691-42.38l-4.976-0.287h-384c-68.168 0-123.89 53.287-127.783 120.479l-0.217 7.521v469.333c0 68.168 53.287 123.89 120.479 127.783l7.521 0.217h67.66l60.34 60.34c14.225 14.225 32.955 22.909 52.837 24.663l7.503 0.33zM469.333 725.333c117.821 0 213.333-95.513 213.333-213.333s-95.513-213.333-213.333-213.333c-117.821 0-213.333 95.513-213.333 213.333s95.513 213.333 213.333 213.333zM469.333 640c-70.692 0-128-57.308-128-128s57.308-128 128-128c70.692 0 128 57.308 128 128s-57.308 128-128 128z" />
<glyph unicode="&#xe925;" glyph-name="captiondown" d="M170.665 767.999c-23.564 0-42.667-19.103-42.667-42.667s19.103-42.667 42.667-42.667h597.335c23.561 0 42.667 19.102 42.667 42.667s-19.106 42.667-42.667 42.667h-597.335zM170.665 554.667c-23.564 0-42.667-19.102-42.667-42.667s19.103-42.667 42.667-42.667h426.668c23.561 0 42.667 19.102 42.667 42.667s-19.106 42.667-42.667 42.667h-426.668zM127.998 298.667c0 23.565 19.103 42.667 42.667 42.667h298.668c23.561 0 42.667-19.102 42.667-42.667s-19.106-42.667-42.667-42.667h-298.668c-23.564 0-42.667 19.102-42.667 42.667zM798.165 140.497c-16.661-16.661-43.674-16.661-60.339 0l-128 128c-16.661 16.661-16.661 43.678 0 60.339 16.666 16.661 43.678 16.661 60.339 0l55.164-55.164v238.327c0 23.565 19.106 42.667 42.667 42.667 23.565 0 42.667-19.102 42.667-42.667v-238.327l55.164 55.164c16.666 16.661 43.678 16.661 60.339 0 16.666-16.661 16.666-43.678 0-60.339l-128-128z" />
<glyph unicode="&#xe926;" glyph-name="captionup" d="M737.826 883.505c16.661 16.662 43.678 16.662 60.339 0l128-128c16.666-16.663 16.666-43.677 0-60.34-16.661-16.662-43.678-16.662-60.339 0l-55.164 55.164v-238.329c0-23.561-19.102-42.667-42.667-42.667s-42.667 19.106-42.667 42.667v238.329l-55.164-55.164c-16.661-16.662-43.678-16.662-60.339 0s-16.661 43.677 0 60.34l128 128zM127.998 725.333c0 23.564 19.103 42.667 42.667 42.667h298.668c23.561 0 42.667-19.103 42.667-42.667s-19.106-42.667-42.667-42.667h-298.668c-23.564 0-42.667 19.103-42.667 42.667zM170.666 554.667c-23.564 0-42.667-19.102-42.667-42.667s19.103-42.667 42.667-42.667h426.668c23.565 0 42.667 19.102 42.667 42.667s-19.102 42.667-42.667 42.667h-426.668zM170.665 341.333c-23.564 0-42.667-19.102-42.667-42.667s19.103-42.667 42.667-42.667h597.335c23.561 0 42.667 19.102 42.667 42.667s-19.106 42.667-42.667 42.667h-597.335z" />
<glyph unicode="&#xe927;" glyph-name="car" d="M981.333 170.667c0-70.692-57.308-128-128-128s-128 57.308-128 128h-426.667c0-70.692-57.308-128-128-128-68.168 0-123.89 53.287-127.783 120.479l-0.217 7.521v299.298c0 32.477 5.297 64.736 15.682 95.507l75.86 224.771c29.566 87.604 104.073 152.458 194.916 169.665 75.184 14.241 135.961 21.425 182.875 21.425s107.691-7.185 182.874-21.425c90.844-17.206 165.35-82.060 194.917-169.664l75.86-224.772c10.385-30.771 15.682-63.031 15.682-95.507v-299.298zM127.995 193.502l0.005-22.835c0-23.564 19.103-42.667 42.667-42.667 21.881 0 39.915 16.471 42.38 37.691l0.287 4.976c-31.088 0-60.235 8.312-85.338 22.835zM810.667 170.667c0-23.564 19.103-42.667 42.667-42.667s42.667 19.103 42.667 42.667l0.047 22.86c-25.113-14.538-54.275-22.86-85.381-22.86zM884.798 538.184l-9.377 27.721c-14.717-7.389-30.81-11.914-47.416-13.217l-10.018-0.392h-611.974c-20.132 0-39.775 4.743-57.435 13.609l-9.377-27.721c-7.418-21.98-11.202-45.022-11.202-68.219v-128.631c0-47.128 38.205-85.333 85.333-85.333h597.333c47.128 0 85.333 38.205 85.333 85.333v128.631c0 23.198-3.784 46.24-11.202 68.219v0zM277.333 469.333c35.346 0 64-28.654 64-64s-28.654-64-64-64c-35.346 0-64 28.654-64 64s28.654 64 64 64zM746.667 469.333c35.346 0 64-28.654 64-64s-28.654-64-64-64c-35.346 0-64 28.654-64 64s28.654 64 64 64zM512 896c-40.757 0-96.603-6.602-166.994-19.935-60.562-11.471-110.233-54.707-129.944-113.11l-38.36-113.664c6.592-6.232 14.971-10.175 23.899-11.317l5.412-0.344 311.489 0.005c17.587 62.897 75.322 109.032 143.832 109.032s126.245-46.135 143.832-109.032l12.822-0.005c9.43 0 18.538 3.122 25.943 8.793l3.302 2.964-38.294 113.569c-19.711 58.403-69.382 101.639-129.945 113.11-70.391 13.333-126.236 19.934-166.993 19.934zM661.333 661.333c-20.052 0-37.95-9.222-49.685-23.656h99.37c-11.735 14.434-29.633 23.656-49.685 23.656z" />
<glyph unicode="&#xe928;" glyph-name="card" d="M22.322 809.777c-22.322-43.809-22.322-101.159-22.322-215.857v-81.92h1024v81.92c0 114.698 0 172.048-22.322 215.857-19.634 38.536-50.964 69.866-89.501 89.501-43.809 22.322-101.159 22.322-215.857 22.322h-368.64c-114.698 0-172.048 0-215.857-22.322-38.536-19.635-69.866-50.965-89.501-89.501zM1022.035 307.2h-1020.070c2.452-40.162 7.965-68.656 20.357-92.977 19.635-38.536 50.965-69.866 89.501-89.501 43.809-22.322 101.159-22.322 215.857-22.322h368.64c114.698 0 172.048 0 215.857 22.322 38.536 19.634 69.866 50.964 89.501 89.501 12.392 24.321 17.905 52.815 20.357 92.977z" />
<glyph unicode="&#xe929;" glyph-name="card_outline" d="M938.667 789.333v-554.667q0-25.6-19.2-44.8t-44.8-19.2h-725.333q-25.6 0-44.8 19.2t-19.2 44.8v554.667q0 25.6 19.2 44.8t44.8 19.2h725.333q25.6 0 44.8-19.2t19.2-44.8zM149.333 673.067h725.333v116.267h-725.333zM149.333 535.467v-300.8h725.333v300.8zM149.333 234.667v0z" />
<glyph unicode="&#xe92a;" glyph-name="cash_circle" d="M128 512c0 212.077 171.923 384 384 384 212.079 0 384-171.923 384-384 0-212.079-171.921-384-384-384-212.077 0-384 171.921-384 384zM512 981.333c-259.206 0-469.333-210.128-469.333-469.333 0-259.204 210.128-469.333 469.333-469.333 259.204 0 469.333 210.129 469.333 469.333 0 259.206-210.129 469.333-469.333 469.333zM554.466 810.672c0 23.564-19.106 42.667-42.667 42.667-23.565 0-42.667-19.102-42.667-42.667v-34.487c-74.285-13.287-130.667-78.223-130.667-156.328v-11.852c0-76.583 62.083-138.668 138.667-138.668h69.333c29.457 0 53.333-23.876 53.333-53.333v-11.853c0-40.58-32.9-73.481-73.481-73.481h-33.186c-38.293 0-69.333 31.044-69.333 69.333 0 23.565-19.102 42.667-42.667 42.667s-42.667-19.102-42.667-42.667c0-77.257 56.643-141.282 130.667-152.815v-33.852c0-23.565 19.102-42.667 42.667-42.667 23.561 0 42.667 19.102 42.667 42.667v34.487c74.283 13.286 130.667 78.221 130.667 156.326v11.853c0 76.582-62.084 138.667-138.667 138.667h-69.333c-29.457 0-53.333 23.881-53.333 53.334v11.852c0 40.583 32.9 73.481 73.481 73.481h35.853c36.817 0 66.667-29.847 66.667-66.667 0-23.564 19.102-42.668 42.667-42.668s42.667 19.104 42.667 42.668c0 76.707-56.819 140.144-130.667 150.515v33.485z" />
<glyph unicode="&#xe92b;" glyph-name="channel" d="M789.333 952.385c58.91 0 106.667-47.756 106.667-106.667v-667.437c0-24.74-8.6-48.711-24.327-67.809-37.45-45.475-104.673-51.98-150.148-14.53l-209.525 172.581v-76.524c0-68.168-53.287-123.89-120.479-127.783l-7.521-0.217c-68.168 0-123.89 53.287-127.783 120.479l-0.217 7.521-0.008 110.936c-97.372 19.769-170.659 105.858-170.659 209.064 0 117.821 95.513 213.333 213.333 213.333h176.693l246.165 202.724c19.098 15.728 43.069 24.327 67.809 24.327zM341.333 298.689v-106.689c0-23.564 19.103-42.667 42.667-42.667 21.881 0 39.915 16.471 42.38 37.691l0.287 4.976v106.689h-85.333zM789.333 867.052c-4.948 0-9.742-1.72-13.562-4.865l-246.165-202.724c-15.278-12.582-34.455-19.462-54.247-19.462h-176.693c-70.692 0-128-57.308-128-128s57.308-128 128-128h176.693c19.792 0 38.969-6.88 54.247-19.462l246.165-202.724c9.095-7.49 22.54-6.189 30.030 2.906 3.146 3.82 4.865 8.614 4.865 13.562v667.437c0 11.782-9.551 21.333-21.333 21.333z" />
<glyph unicode="&#xe92c;" glyph-name="channelviews" d="M512 781.474c217.604 0 404.211-215.579 404.211-269.474s-186.607-269.474-404.211-269.474c-217.604 0-404.211 215.579-404.211 269.474s186.607 269.474 404.211 269.474zM512 700.632c-104.178 0-188.632-84.453-188.632-188.632s84.453-188.632 188.632-188.632c104.178 0 188.632 84.453 188.632 188.632s-84.453 188.632-188.632 188.632zM512 606.316c52.089 0 94.316-42.227 94.316-94.316s-42.227-94.316-94.316-94.316c-52.089 0-94.316 42.227-94.316 94.316s42.227 94.316 94.316 94.316z" />
<glyph unicode="&#xe92d;" glyph-name="chatspinned" d="M512 1024c282.77 0 512-229.23 512-512s-229.23-512-512-512c-282.77 0-512 229.23-512 512s229.23 512 512 512zM512 953.173c-243.653 0-441.173-197.52-441.173-441.173s197.52-441.173 441.173-441.173c243.653 0 441.173 197.52 441.173 441.173s-197.52 441.173-441.173 441.173zM554.486 765.481c22.197 36.994 70.181 48.99 107.175 26.794 3.651-2.191 7.114-4.674 10.355-7.425l4.691-4.323 103.827-103.827c30.506-30.506 30.506-79.967 0-110.474-3.011-3.011-6.26-5.768-9.715-8.245l-5.331-3.503-81.669-49.007 1.279-9.021c6.324-55.217-14.317-109.699-59.912-161.771l-8.841-9.735-8.404-8.66c-12.677-12.677-32.575-13.734-46.456-3.169l-3.627 3.169-95.779 95.789-138.372-138.449c-13.83-13.83-36.252-13.83-50.082 0-12.677 12.677-13.734 32.575-3.169 46.456l3.169 3.627 138.406 138.415-95.74 95.729c-12.677 12.677-13.734 32.575-3.169 46.456l3.169 3.627c54.543 54.543 112.015 81.338 170.423 77.994l9.743-0.837 9.014-1.229 49.014 81.62zM625.221 731.541c-2.762 1.657-6.18 1.272-8.498-0.716l-1.504-1.785-62.448-104.080c-8.54-14.233-25.819-20.625-41.565-15.376-34.15 11.383-68.616 5.896-105.016-18.407l-7.83-5.496-5.527-4.221 188.587-188.587 4.27 5.478c25.072 34.065 33.8 66.362 27.743 98.187l-1.66 7.337-2.18 7.323c-4.724 14.172-0.019 29.585 11.345 38.752l4.031 2.814 104.815 62.953 0.668 0.591c2.278 2.278 2.733 5.687 1.367 8.417l-1.367 1.892-103.827 103.827-1.404 1.096z" />
<glyph unicode="&#xe92e;" glyph-name="chatsplaceholder" d="M938.667 725.333c21.881 0 39.915-16.471 42.38-37.691l0.287-4.976v-629.699c0-25.921-21.013-46.933-46.933-46.933-10.669 0-20.964 3.633-29.23 10.214l-3.957 3.533-150.886 150.886h-408.993c-23.564 0-42.667 19.103-42.667 42.667 0 21.881 16.471 39.915 37.691 42.38l4.976 0.287h341.335c114.72 0 208.291 90.552 213.136 204.079l0.197 9.254v213.333l0.285 4.976c2.465 21.22 20.499 37.691 42.38 37.691zM682.667 981.333c70.692 0 128-57.308 128-128v-384c0-70.692-57.308-128-128-128h-408.994l-150.886-150.886c-18.329-18.329-48.045-18.329-66.374 0-8.802 8.802-13.746 20.739-13.746 33.187v629.699c0 70.692 57.308 128 128 128h512z" />
<glyph unicode="&#xe92f;" glyph-name="check1" d="M200.837 499.503c-16.662 16.662-43.677 16.662-60.34 0s-16.662-43.677 0-60.34l213.333-213.333c16.662-16.662 43.677-16.662 60.34 0l469.333 469.333c16.662 16.662 16.662 43.677 0 60.34s-43.677 16.662-60.34 0l-439.163-439.163-183.163 183.163z" />
<glyph unicode="&#xe930;" glyph-name="checkbox" d="M401.067 938.667h-1.827c-46.241 0-83.539 0.001-113.741-2.467-31.098-2.541-58.412-7.909-83.683-20.785-40.141-20.453-72.777-53.089-93.23-93.23-12.876-25.271-18.244-52.586-20.785-83.683-2.468-30.202-2.467-67.5-2.467-113.741v0-225.519c0-46.242-0.001-83.537 2.467-113.741 2.541-31.1 7.909-58.415 20.785-83.686 20.453-40.141 53.089-72.777 93.23-93.227 25.271-12.877 52.586-18.244 83.683-20.787 30.202-2.466 67.497-2.466 113.736-2.466h225.529c46.242 0 83.537 0 113.737 2.466 31.1 2.543 58.415 7.91 83.686 20.787 40.141 20.45 72.777 53.086 93.227 93.227 12.877 25.271 18.244 52.587 20.787 83.686 2.466 30.199 2.466 67.494 2.466 113.737v225.529c0 46.239 0 83.535-2.466 113.736-2.543 31.098-7.91 58.412-20.787 83.683-20.45 40.141-53.086 72.777-93.227 93.23-25.271 12.876-52.587 18.244-83.686 20.785-30.204 2.468-67.499 2.467-113.741 2.467h-223.693zM240.556 839.382c11.236 5.725 26.071 9.658 51.892 11.767 26.319 2.15 60.124 2.184 108.619 2.184h221.867c48.495 0 82.3-0.033 108.621-2.184 25.818-2.109 40.653-6.042 51.891-11.767 24.085-12.272 43.665-31.853 55.936-55.938 5.726-11.236 9.66-26.071 11.767-51.892 2.15-26.319 2.185-60.124 2.185-108.619v-221.867c0-48.495-0.034-82.3-2.185-108.621-2.108-25.818-6.042-40.653-11.767-51.891-12.271-24.085-31.851-43.665-55.936-55.936-11.238-5.726-26.074-9.66-51.891-11.767-26.321-2.15-60.126-2.185-108.621-2.185h-221.867c-48.495 0-82.301 0.034-108.619 2.185-25.821 2.108-40.655 6.042-51.892 11.767-24.085 12.271-43.666 31.851-55.938 55.936-5.725 11.238-9.658 26.074-11.767 51.891-2.15 26.321-2.184 60.126-2.184 108.621v221.867c0 48.495 0.033 82.301 2.184 108.619 2.109 25.821 6.042 40.655 11.767 51.892 12.272 24.085 31.853 43.666 55.938 55.938zM734.17 609.83c16.661 16.663 16.661 43.677 0 60.34s-43.678 16.662-60.339 0l-225.83-225.831-76.497 76.497c-16.663 16.661-43.677 16.661-60.34 0s-16.662-43.678 0-60.339l106.667-106.667c16.662-16.661 43.678-16.661 60.34 0l256 256z" />
<glyph unicode="&#xe931;" glyph-name="checkboxblock" d="M768 896c70.692 0 128-57.308 128-128v-512c0-70.692-57.308-128-128-128h-512c-70.692 0-128 57.308-128 128v512c0 70.692 57.308 128 128 128h512zM682.667 554.667h-341.333c-23.564 0-42.667-19.103-42.667-42.667s19.103-42.667 42.667-42.667h341.333c23.564 0 42.667 19.103 42.667 42.667s-19.103 42.667-42.667 42.667z" />
<glyph unicode="&#xe932;" glyph-name="checkboxempty" d="M256 896h512c70.692 0 128-57.308 128-128v-512c0-70.692-57.308-128-128-128h-512c-70.692 0-128 57.308-128 128v512c0 70.692 57.308 128 128 128zM256 810.667c-23.564 0-42.667-19.103-42.667-42.667v-512c0-23.564 19.103-42.667 42.667-42.667h512c23.564 0 42.667 19.103 42.667 42.667v512c0 23.564-19.103 42.667-42.667 42.667h-512z" />
<glyph unicode="&#xe933;" glyph-name="checkboxon" d="M768 896c70.692 0 128-57.308 128-128v-512c0-70.692-57.308-128-128-128h-512c-70.692 0-128 57.308-128 128v512c0 70.692 57.308 128 128 128h512zM737.83 712.837l-311.163-311.163-140.497 140.497c-16.662 16.662-43.677 16.662-60.34 0s-16.662-43.677 0-60.34l170.667-170.667c16.662-16.662 43.677-16.662 60.34 0l341.333 341.333c16.662 16.662 16.662 43.677 0 60.34s-43.677 16.662-60.34 0z" />
<glyph unicode="&#xe934;" glyph-name="checkretract" d="M328.837 1011.503c16.662-16.662 16.662-43.677 0-60.34l-55.164-55.163h451.66c94.255 0 170.667-76.41 170.667-170.667v-426.667c0-94.255-76.412-170.667-170.667-170.667h-426.667c-94.257 0-170.667 76.412-170.667 170.667v298.667c0 23.564 19.103 42.667 42.667 42.667s42.667-19.103 42.667-42.667v-298.667c0-47.13 38.205-85.333 85.333-85.333h426.667c47.13 0 85.333 38.204 85.333 85.333v426.667c0 47.128-38.204 85.333-85.333 85.333h-451.66l55.164-55.163c16.662-16.663 16.662-43.677 0-60.34s-43.677-16.662-60.34 0l-128 128c-8.001 8.002-12.497 18.854-12.497 30.17s4.495 22.168 12.497 30.17l128 128c16.663 16.662 43.677 16.662 60.34 0zM673.83 670.17c16.661 16.662 43.678 16.662 60.339 0s16.661-43.677 0-60.34l-256-256c-16.661-16.661-43.678-16.661-60.34 0l-106.667 106.667c-16.662 16.661-16.662 43.678 0 60.339s43.677 16.661 60.34 0l76.497-76.497 225.83 225.831z" />
<glyph unicode="&#xe935;" glyph-name="checkround" d="M128 512c0 212.077 171.923 384 384 384 212.079 0 384-171.923 384-384 0-212.079-171.921-384-384-384-212.077 0-384 171.921-384 384zM512 981.333c-259.206 0-469.333-210.128-469.333-469.333 0-259.204 210.128-469.333 469.333-469.333 259.204 0 469.333 210.129 469.333 469.333 0 259.206-210.129 469.333-469.333 469.333zM734.17 609.83c16.661 16.663 16.661 43.677 0 60.34s-43.678 16.662-60.339 0l-225.83-225.831-76.497 76.497c-16.663 16.661-43.677 16.661-60.34 0s-16.662-43.678 0-60.339l106.667-106.667c16.662-16.661 43.678-16.661 60.34 0l256 256z" />
<glyph unicode="&#xe936;" glyph-name="checkround_filled" d="M512 42.667c-259.206 0-469.333 210.129-469.333 469.333 0 259.206 210.128 469.333 469.333 469.333 259.204 0 469.333-210.128 469.333-469.333 0-259.204-210.129-469.333-469.333-469.333zM734.17 609.83c16.661 16.663 16.661 43.677 0 60.34s-43.678 16.662-60.339 0l-225.83-225.831-76.497 76.497c-16.663 16.661-43.677 16.661-60.34 0s-16.662-43.678 0-60.339l106.667-106.667c16.662-16.661 43.678-16.661 60.34 0l256 256z" />
<glyph unicode="&#xe937;" glyph-name="clock" d="M512 85.333c-235.642 0-426.667 191.027-426.667 426.667 0 235.642 191.025 426.667 426.667 426.667 235.639 0 426.667-191.025 426.667-426.667 0-235.639-191.027-426.667-426.667-426.667zM554.667 772.741c0 23.564-19.102 42.667-42.667 42.667s-42.667-19.102-42.667-42.667v-260.736c0-11.319 4.497-22.17 12.497-30.17l165.926-165.931c16.661-16.661 43.678-16.661 60.339 0s16.661 43.678 0 60.339l-153.429 153.434v243.064z" />
<glyph unicode="&#xe938;" glyph-name="close" d="M737.83 798.17c16.661 16.662 43.678 16.662 60.339 0s16.661-43.677 0-60.34l-225.83-225.83 225.83-225.83c16.661-16.661 16.661-43.678 0-60.339s-43.678-16.661-60.339 0l-225.83 225.83-225.83-225.83c-16.663-16.661-43.677-16.661-60.34 0s-16.662 43.678 0 60.339l225.831 225.83-225.831 225.83c-16.662 16.663-16.662 43.677 0 60.34s43.677 16.662 60.34 0l225.83-225.831 225.83 225.831z" />
<glyph unicode="&#xe939;" glyph-name="clouddownload" d="M512 853.333c160.012 0 289.808-130.736 300.137-295.265l0.151-3.402h28.245c99.052 0 178.66-81.343 183.257-182.73l0.21-9.27c0-102.545-76.695-186.904-174.517-191.778l-8.95-0.222h-115.2c-23.564 0-42.667 19.103-42.667 42.667 0 21.881 16.471 39.915 37.691 42.38l4.976 0.287h115.2c53.766 0 98.133 47.057 98.133 106.667 0 57.126-40.747 102.723-91.464 106.424l-6.669 0.243h-70.4c-21.881 0-39.915 16.471-42.38 37.691l-0.287 4.976v24.889c0 128.303-96.933 231.111-215.467 231.111-96.368 0-180.408-68.536-207.079-167.543-4.561-16.933-18.935-29.168-36.004-31.253l-5.194-0.315h-33.323c-79.579 0-145.067-69.457-145.067-156.444 0-84.088 61.195-151.795 137.158-156.215l7.909-0.23h68.267c23.564 0 42.667-19.103 42.667-42.667 0-21.881-16.471-39.915-37.691-42.38l-4.976-0.287h-68.267c-127.866 0-230.4 108.748-230.4 241.778 0 129.863 97.709 236.586 221.311 241.594l11.436 0.212 0.198 0.493c43.791 114.561 147.684 193.819 268.067 198.382l10.988 0.208zM512 597.333c21.881 0 39.915-16.471 42.38-37.691l0.287-4.976v-238.251l55.163 55.087c15.381 15.381 39.583 16.564 56.32 3.549l4.020-3.549c15.381-15.381 16.564-39.583 3.549-56.32l-3.549-4.020-128-128c-15.381-15.381-39.583-16.564-56.32-3.549l-4.020 3.549-128 128c-16.662 16.662-16.662 43.677 0 60.34 15.381 15.381 39.583 16.564 56.32 3.549l4.020-3.549 55.163-55.087v238.251c0 23.564 19.103 42.667 42.667 42.667z" />
<glyph unicode="&#xe93a;" glyph-name="collapse" d="M554.667 426.667c0 23.565 19.102 42.667 42.667 42.667h256c23.565 0 42.667-19.102 42.667-42.667s-19.102-42.667-42.667-42.667h-213.333v-213.333c0-23.565-19.102-42.667-42.667-42.667s-42.667 19.102-42.667 42.667v256zM426.667 896c23.565 0 42.667-19.103 42.667-42.667v-256c0-23.565-19.102-42.667-42.667-42.667h-256c-23.564 0-42.667 19.102-42.667 42.667s19.103 42.667 42.667 42.667h213.333v213.333c0 23.564 19.103 42.667 42.667 42.667zM140.497 883.503c16.663 16.662 43.677 16.662 60.34 0l256-256c16.661-16.663 16.661-43.678 0-60.34s-43.677-16.661-60.34 0l-256 256c-16.662 16.663-16.662 43.677 0 60.34zM567.164 456.836c16.661 16.661 43.678 16.661 60.339 0l256-256c16.661-16.661 16.661-43.678 0-60.339s-43.678-16.661-60.339 0l-256 256c-16.661 16.661-16.661 43.678 0 60.339z" />
<glyph unicode="&#xe93b;" glyph-name="colorize" d="M822.912 900.985l5.428-4.985 67.66-67.66c31.571-31.571 33.232-81.725 4.985-115.252l-4.985-5.428-153.003-152.96 33.839-33.864c16.662-16.662 16.662-43.677 0-60.34-15.381-15.381-39.583-16.564-56.32-3.549l-4.020 3.549-33.83 33.83-353.83-353.83c-6.668-6.668-15.316-10.901-24.562-12.127l-5.608-0.37h-128c-21.881 0-39.915 16.471-42.38 37.691l-0.287 4.976v128c0 9.43 3.122 18.538 8.793 25.943l3.704 4.227 353.797 353.864-33.797 33.797c-16.662 16.662-16.662 43.677 0 60.34 15.381 15.381 39.583 16.564 56.32 3.549l4.020-3.549 33.83-33.806 152.994 152.969c31.571 31.571 81.725 33.232 115.252 4.985zM554.667 622.293l-341.333-341.291v-67.627h67.627l341.333 341.291-67.627 67.627zM768 835.66l-153.003-152.96 67.669-67.669 152.994 152.969-67.66 67.66z" />
<glyph unicode="&#xe93c;" glyph-name="comments" d="M512 981.333c-257.45 0-469.333-192.199-469.333-433.658l0.222-13.894c3.701-115.213 53.485-216.034 140.585-292.181l6.35-5.355-3.088-4.267-7.117-8.461-19.641-21.936c-12.634-14.884-20.342-26.863-24.672-47.726-9.622-46.37 16.329-86.028 54.672-102.076 41.869-17.524 126.555-9.82 181.919 21.16l12.725 7.394c16.319 9.861 30.227 19.822 43.819 30.982l9.533 8.108 16.748-2.207c18.905-2.126 38.024-3.2 57.278-3.2 257.45 0 469.333 192.199 469.333 433.658s-211.884 433.658-469.333 433.658zM512 896c212.077 0 384-155.95 384-348.325s-171.923-348.325-384-348.325c-32.515 0-64.086 3.666-94.238 10.566-3.6 0.824-7.509-1.251-12.621-5.399l-8.683-7.675-11.161-10.167-9.149-7.857-10.748-8.507c-9.678-7.309-21.23-15.103-35.173-22.905-40.955-22.918-97.699-20.93-107.303-16.91-6.559 2.745-4.849 7.422 1.188 14.761l8.41 9.419 7.020 7.642 7.719 8.812c5.297 6.28 10.815 13.385 16.060 21.408 24.913 38.107 14.619 83.474 3.442 91.639-87.4 63.847-138.763 153.782-138.763 263.499 0 192.375 171.923 348.325 384 348.325z" />
<glyph unicode="&#xe93d;" glyph-name="commentssticker" d="M512 164.611c235.641 0 426.667 173.278 426.667 387.028s-191.025 387.028-426.667 387.028c-235.641 0-426.667-173.278-426.667-387.028 0-121.908 57.070-221.835 154.181-292.776 12.419-9.072 23.857-59.48-3.824-101.821-5.273-8.065-10.793-15.296-16.156-21.768l-7.876-9.148-16.661-18.26c-8.926-10.115-12.435-16.309-4.193-19.759 10.67-4.466 73.719-6.675 119.225 18.789 16.975 9.499 30.759 18.986 42.111 27.765l10.569 8.517 9.116 7.89 17.538 15.962 5.356 4.473c4.981 3.836 8.918 5.685 12.571 4.849 33.502-7.667 68.581-11.74 104.709-11.74z" />
<glyph unicode="&#xe93e;" glyph-name="copy" d="M375.467 938.667h-1.763c-34.345 0-62.691 0.001-85.781-1.885-23.983-1.96-46.029-6.165-66.737-16.716-32.113-16.362-58.222-42.471-74.584-74.584-10.551-20.707-14.757-42.754-16.716-66.737-1.887-23.090-1.886-51.436-1.886-85.78v-394.298c0-23.565 19.103-42.667 42.667-42.667s42.667 19.102 42.667 42.667v392.533c0 36.547 0.033 61.392 1.602 80.596 1.528 18.706 4.299 28.272 7.699 34.945 8.181 16.056 21.236 29.111 37.292 37.292 6.673 3.4 16.239 6.17 34.945 7.699 19.204 1.569 44.048 1.602 80.596 1.602h221.867c23.565 0 42.667 19.102 42.667 42.667s-19.102 42.667-42.667 42.667h-221.867zM435.2 810.667h-1.643c-22.493 0.001-41.897 0.001-57.879-1.304-16.868-1.378-33.645-4.421-49.789-12.647-24.085-12.272-43.666-31.853-55.938-55.938-8.226-16.144-11.269-32.922-12.647-49.789-1.306-15.982-1.305-35.385-1.304-57.876v-370.221c-0.001-22.494-0.001-41.899 1.304-57.877 1.378-16.87 4.421-33.647 12.647-49.792 12.272-24.085 31.853-43.665 55.938-55.936 16.144-8.226 32.922-11.268 49.789-12.646 15.982-1.306 35.385-1.306 57.874-1.306h242.227c22.49 0 41.894 0 57.873 1.306 16.87 1.378 33.647 4.42 49.792 12.646 24.085 12.271 43.665 31.851 55.936 55.936 8.226 16.145 11.268 32.922 12.646 49.792 1.306 15.979 1.306 35.383 1.306 57.873v370.229c0 22.49 0 41.892-1.306 57.873-1.378 16.868-4.42 33.645-12.646 49.789-12.271 24.085-31.851 43.666-55.936 55.938-16.145 8.226-32.922 11.269-49.792 12.647-15.979 1.306-35.383 1.305-57.877 1.304h-240.576zM364.63 720.683c2.11 1.075 6.407 2.682 17.998 3.629 12.089 0.988 27.973 1.021 52.572 1.021h238.933c24.602 0 40.482-0.033 52.574-1.021 11.588-0.947 15.885-2.554 17.997-3.629 8.030-4.091 14.554-10.618 18.645-18.646 1.075-2.109 2.684-6.407 3.631-17.998 0.986-12.089 1.020-27.973 1.020-52.572v-366.933c0-24.602-0.034-40.482-1.020-52.574-0.947-11.588-2.556-15.885-3.631-17.997-4.092-8.030-10.615-14.554-18.645-18.645-2.112-1.075-6.409-2.684-17.997-3.631-12.092-0.986-27.972-1.020-52.574-1.020h-238.933c-24.599 0-40.483 0.034-52.572 1.020-11.591 0.947-15.888 2.556-17.998 3.631-8.028 4.092-14.555 10.615-18.646 18.645-1.075 2.112-2.682 6.409-3.63 17.997-0.988 12.092-1.021 27.972-1.021 52.574v366.933c0 24.599 0.033 40.483 1.021 52.572 0.947 11.591 2.554 15.889 3.63 17.998 4.090 8.028 10.618 14.555 18.646 18.646z" />
<glyph unicode="&#xe93f;" glyph-name="crossgif" d="M115.503 968.837l39.964-39.964c5.318 3.136 10.744 6.115 16.27 8.931 34.703 17.681 72.906 25.452 118.707 29.195 44.903 3.668 100.709 3.668 171.584 3.668h99.938c70.878 0 126.682 0 171.584-3.668 45.803-3.742 84.006-11.513 118.707-29.194 56.734-28.907 102.861-75.032 131.767-131.765 17.698-34.739 25.459-73.127 29.197-119.194 3.665-45.2 3.665-101.458 3.665-172.959v-3.772c0-71.501 0-127.761-3.665-172.958-3.738-46.067-11.499-84.454-29.197-119.194-12.924-25.365-29.291-48.61-48.508-69.141l33.318-33.318c16.661-16.661 16.661-43.678 0-60.339s-43.678-16.661-60.339 0l-853.334 853.333c-16.662 16.663-16.662 43.677 0 60.34s43.677 16.662 60.34 0zM218.715 865.625l300.995-300.995v62.927c0 21.22 17.199 38.422 38.421 38.422 21.218 0 38.421-17.202 38.421-38.422v-139.769l73.468-73.468v177.246c0 5.598-0.004 11.863 0.444 17.321 0.508 6.23 1.783 14.703 6.263 23.494 5.901 11.578 15.313 20.992 26.893 26.891 8.789 4.479 17.263 5.755 23.492 6.264 5.457 0.446 11.729 0.445 17.323 0.443h79.565c21.218 0 38.421-17.202 38.421-38.422s-17.203-38.423-38.421-38.423h-77.137v-38.711h77.137c21.218 0 38.421-17.203 38.421-38.421 0-21.222-17.203-38.421-38.421-38.421h-77.137v-77.133c0-15.945-9.707-29.619-23.535-35.435l151.804-151.804c12.954 14.204 24.026 30.157 32.862 47.492 10.509 20.634 16.858 46.481 20.173 87.356 3.354 41.344 3.388 94.144 3.388 167.945s-0.034 126.6-3.388 167.945c-3.315 40.876-9.664 66.722-20.173 87.353-20.727 40.677-53.798 73.748-94.477 94.473-20.668 10.531-46.387 16.866-86.912 20.177-41.024 3.351-93.346 3.385-166.537 3.385h-96.141c-73.187 0-125.512-0.033-166.534-3.385-35.318-2.886-59.394-8.069-78.678-16.324zM752.491 144.853l70.899-70.899c-26.957-9.331-56.367-14.217-89.839-16.951-44.902-3.669-100.706-3.669-171.584-3.669h-99.938c-70.876 0-126.681 0-171.585 3.669-45.801 3.742-84.004 11.511-118.707 29.193-56.733 28.907-102.858 75.034-131.765 131.767-17.7 34.739-25.459 73.126-29.197 119.194-3.667 45.197-3.667 101.453-3.666 172.954v0 3.78c0 71.501 0 127.756 3.666 172.955 3.737 46.067 11.496 84.455 29.197 119.194 5.7 11.187 12.070 21.962 19.058 32.274l61.898-61.898c-1.711-2.994-3.353-6.033-4.924-9.117-10.512-20.631-16.859-46.477-20.175-87.353-3.354-41.345-3.387-94.145-3.387-167.945s0.032-126.601 3.387-167.945c3.316-40.875 9.663-66.722 20.175-87.356 20.726-40.674 53.797-73.745 94.473-94.473 20.668-10.53 46.391-16.866 86.915-20.177 41.022-3.349 93.347-3.383 166.534-3.383h96.141c73.19 0 125.513 0.034 166.537 3.383 9.382 0.768 17.971 1.698 25.886 2.803zM161.577 512c0 60.523 34.92 112.892 85.711 138.056l61.238-61.239c-39.305-3.55-70.104-36.587-70.104-76.817 0-42.598 34.534-77.133 77.133-77.133 25.741 0 50.351 13.948 61.258 38.711h-15.036c-21.22 0-38.422 17.203-38.422 38.421 0 16.768 10.74 31.027 25.716 36.271l100.354-100.352c-22.737-58.534-79.485-89.894-133.871-89.894-85.039 0-153.978 68.937-153.978 153.975z" />
<glyph unicode="&#xe940;" glyph-name="crossround" d="M128 512c0 212.077 171.923 384 384 384 212.079 0 384-171.923 384-384 0-212.079-171.921-384-384-384-212.077 0-384 171.921-384 384zM512 981.333c-259.206 0-469.333-210.128-469.333-469.333 0-259.204 210.128-469.333 469.333-469.333 259.204 0 469.333 210.129 469.333 469.333 0 259.206-210.129 469.333-469.333 469.333zM311.163 712.837c16.663 16.662 43.677 16.662 60.34 0l140.497-140.497 140.497 140.497c16.661 16.662 43.678 16.662 60.339 0s16.661-43.677 0-60.34l-140.497-140.497 140.497-140.497c16.661-16.661 16.661-43.678 0-60.339s-43.678-16.661-60.339 0l-140.497 140.497-140.497-140.497c-16.663-16.661-43.677-16.661-60.34 0s-16.662 43.678 0 60.339l140.497 140.497-140.497 140.497c-16.662 16.663-16.662 43.677 0 60.34z" />
<glyph unicode="&#xe941;" glyph-name="crossstar" d="M158.17 926.17l224.765-224.765 70.164 165.087c22.080 51.955 95.718 51.956 117.803 0l84.207-198.137 215.326-18.217c56.461-4.777 79.322-75.161 36.442-112.204l-163.43-141.188 17.054-72.905 165.67-165.67c16.661-16.661 16.661-43.678 0-60.339s-43.678-16.661-60.339 0l-768 768c-16.662 16.663-16.662 43.677 0 60.34s43.677 16.662 60.34 0zM448 636.338l211.179-211.173c3.605 10.543 9.967 20.16 18.714 27.716l134.852 116.497-177.634 15.031c-23.637 1.997-44.228 16.908-53.508 38.738l-69.602 163.77-64-150.58zM669.769 233.609l106.138-106.138c-19.383-19.55-50.884-26.714-78.694-9.98l-185.212 111.479-185.214-111.479c-48.488-29.184-108.212 14.306-95.321 69.414l49.089 209.839-163.433 141.188c-42.879 37.043-20.018 107.427 36.443 112.204l91.9 7.775 78.958-78.96-113.168-9.574 134.851-116.497c18.012-15.561 25.9-39.829 20.479-63.006l-40.522-173.222 152.936 92.049c20.305 12.224 45.7 12.224 66.005 0l124.766-75.093z" />
<glyph unicode="&#xe942;" glyph-name="darkmode" d="M191.121 938.667c-6.545 0-11.852-5.111-11.852-11.417v-6.361c0-39.273-36.885-76.535-76.158-76.535h-5.339c-6.87 0.001-12.439-5.364-12.439-11.981s5.568-11.981 12.438-11.981h5.34c39.273 0 76.158-38.007 76.158-77.281v-6.362c0-6.305 5.306-11.416 11.852-11.416s11.852 5.111 11.852 11.416v6.362c0 39.273 38.642 77.281 77.915 77.281h5.34c6.869 0 12.438 5.364 12.438 11.981s-5.569 11.982-12.439 11.981h-5.339c-39.273 0-77.915 37.261-77.915 76.535v6.362c0 6.305-5.306 11.416-11.852 11.416zM362.14 768c-3.927 0-7.111-3.067-7.111-6.85v-3.817c0-23.564-22.131-45.921-45.695-45.921h-3.204c-4.122 0-7.463-3.218-7.463-7.188s3.341-7.188 7.463-7.188h3.204c23.564 0 45.695-22.805 45.695-46.369v-3.816c-0.001-3.783 3.183-6.851 7.111-6.851s7.112 3.067 7.111 6.851v3.816c0 23.564 23.185 46.369 46.749 46.369h3.204c4.122 0 7.463 3.218 7.463 7.188s-3.342 7.19-7.464 7.188h-3.203c-23.564 0-46.749 22.357-46.749 45.921v3.816c0.001 3.783-3.183 6.851-7.111 6.851zM697.835 707.519c0-111.321-36.838-206.48-106.014-273.787-69.060-67.191-166.318-102.724-279.986-102.724-41.953 0-80.931 4.723-116.507 14.733 60.171-109.884 171.66-175.074 312.631-175.074 210.005 0 356.041 148.117 356.041 347.661 0 142.455-75.029 267.153-185.007 322.594 11.857-36.643 18.842-85.56 18.842-133.402zM597.218 916.607c26.091 28.846 63.795 24.154 87.966 14.902v0.001l0.329-0.128c160.085-62.787 263.821-229.777 263.821-413.055 0-247.727-185.297-432.994-441.374-432.994-182.586 0-331.849 92.757-402.928 250.453-11.241 24.491-16.281 62.199 11.455 88.269l0.115 0.107c24.582 22.933 57.515 18.995 77.921 11.789 0.471-0.166 0.939-0.341 1.404-0.525 31.327-12.314 69.653-19.085 115.908-19.085 95.838 0 170.247 29.679 220.479 78.549 50.108 48.759 80.188 120.519 80.188 212.628 0 54.455-10.701 102.557-20.838 122.739l-0.004-0.001-0.218 0.442c-10.974 22.49-17.86 56.255 3.998 83.807 0.572 0.72 1.165 1.421 1.779 2.102z" />
<glyph unicode="&#xe943;" glyph-name="data" d="M228.166 753.805c12.198 12.617 31.91 25.929 59.577 38.034 55.209 24.154 134.463 40.161 224.258 40.161 89.796 0 169.050-16.008 224.256-40.161 27.669-12.105 47.381-25.417 59.58-38.034 11.998-12.413 14.831-21.97 14.831-28.471s-2.833-16.059-14.831-28.471c-12.198-12.617-31.91-25.929-59.58-38.034-55.206-24.154-134.46-40.161-224.256-40.161s-169.049 16.008-224.258 40.161c-27.667 12.105-47.378 25.417-59.577 38.034-12 12.413-14.832 21.97-14.832 28.471s2.832 16.059 14.832 28.471zM166.815 813.117c-22.545-23.32-38.815-53.048-38.815-87.783v-426.667c0-34.735 16.27-64.465 38.815-87.782 22.347-23.117 52.623-41.984 86.724-56.9 68.33-29.897 159.743-47.317 258.461-47.317s190.131 17.421 258.462 47.317c34.099 14.916 64.375 33.783 86.724 56.9 22.545 23.317 38.814 53.047 38.814 87.782v426.667c0 34.735-16.269 64.463-38.814 87.783-22.349 23.115-52.625 41.981-86.724 56.901-68.331 29.894-159.744 47.316-258.462 47.316s-190.131-17.422-258.461-47.316c-34.102-14.919-64.378-33.786-86.724-56.901zM810.667 512c0-6.502-2.833-16.060-14.831-28.471-12.198-12.617-31.91-25.929-59.58-38.033-55.206-24.154-134.46-40.162-224.256-40.162s-169.049 16.009-224.258 40.162c-27.667 12.105-47.378 25.417-59.577 38.033-12 12.412-14.832 21.969-14.832 28.471v89.297c12.547-7.577 26.046-14.451 40.206-20.646 68.33-29.897 159.743-47.317 258.461-47.317s190.131 17.421 258.462 47.317c14.157 6.195 27.657 13.069 40.205 20.646v-89.297zM213.333 387.964c12.547-7.578 26.046-14.451 40.206-20.646 68.33-29.897 159.743-47.317 258.461-47.317s190.131 17.421 258.462 47.317c14.157 6.195 27.657 13.069 40.205 20.646v-89.297c0-6.502-2.833-16.060-14.831-28.471-12.198-12.617-31.91-25.929-59.58-38.033-55.206-24.154-134.46-40.162-224.256-40.162s-169.049 16.009-224.258 40.162c-27.667 12.105-47.378 25.417-59.577 38.033-12 12.412-14.832 21.969-14.832 28.471v89.297z" />
<glyph unicode="&#xe944;" glyph-name="delete" d="M426.667 938.667c-11.316 0-22.168-4.495-30.17-12.497l-30.17-30.17h-174.327c-23.564 0-42.667-19.103-42.667-42.667s19.103-42.667 42.667-42.667h640c23.565 0 42.667 19.103 42.667 42.667s-19.102 42.667-42.667 42.667h-174.327l-30.17 30.17c-8 8.001-18.854 12.497-30.17 12.497h-170.667zM204.497 734.17c8.002 8.001 18.854 12.497 30.17 12.497h554.667c23.565 0 42.667-19.103 42.667-42.667v-372.962c0-34.347 0-62.69-1.886-85.781-1.958-23.983-6.165-46.029-16.717-66.739-16.363-32.111-42.47-58.219-74.581-74.581-20.71-10.551-42.756-14.758-66.739-16.717-23.091-1.886-51.435-1.886-85.781-1.886h-148.591c-34.345 0-62.691 0-85.783 1.886-23.983 1.958-46.029 6.165-66.736 16.717-32.113 16.363-58.222 42.47-74.584 74.581-10.551 20.71-14.756 42.756-16.716 66.739-1.886 23.091-1.886 51.435-1.885 85.781v372.962c0 11.316 4.495 22.168 12.497 30.17zM277.333 661.333v-328.533c0-36.548 0.033-61.393 1.602-80.597 1.528-18.705 4.299-28.271 7.699-34.944 8.181-16.055 21.235-29.111 37.292-37.291 6.673-3.401 16.239-6.17 34.945-7.697 19.204-1.57 44.048-1.604 80.596-1.604h145.067c36.548 0 61.393 0.034 80.597 1.604 18.705 1.527 28.271 4.297 34.944 7.697 16.055 8.179 29.111 21.235 37.291 37.291 3.401 6.673 6.17 16.239 7.697 34.944 1.57 19.204 1.604 44.049 1.604 80.597v328.533h-469.333z" />
<glyph unicode="&#xe945;" glyph-name="delete_filled" d="M768 746.667c23.564 0 42.667-19.103 42.667-42.667v-448c0-70.692-57.308-128-128-128h-341.333c-70.692 0-128 57.308-128 128v448c0 23.564 19.103 42.667 42.667 42.667h512zM426.667 938.667h170.667c9.43 0 18.538-3.122 25.943-8.793l4.227-3.704 30.203-30.17h152.96c21.881 0 39.915-16.471 42.38-37.691l0.287-4.976c0-21.881-16.471-39.915-37.691-42.38l-4.976-0.287h-597.333c-23.564 0-42.667 19.103-42.667 42.667 0 21.881 16.471 39.915 37.691 42.38l4.976 0.287h152.917l30.246 30.17c6.668 6.668 15.316 10.901 24.562 12.127l5.608 0.37z" />
<glyph unicode="&#xe946;" glyph-name="deletedaccount" d="M511.996 943.406c-183.275 0-331.85-148.575-331.85-331.852v-392.875c0-22.699 0-34.048 3.333-40.913 6.391-13.163 20.648-20.582 35.096-18.27 7.535 1.203 16.832 7.71 35.427 20.727 10.070 7.049 15.105 10.573 20.168 12.109 9.618 2.918 20.041 1.323 28.342-4.348 4.369-2.982 8.117-7.851 15.612-17.596l46.387-60.301c12.735-16.559 19.102-24.836 27.055-28.245 6.983-2.991 14.782-3.499 22.094-1.434 8.327 2.351 15.712 9.737 30.479 24.503l30.315 30.315c13.141 13.141 19.712 19.712 27.29 22.174 6.665 2.167 13.845 2.167 20.51 0 7.578-2.462 14.148-9.033 27.29-22.174l30.315-30.315c14.767-14.767 22.153-22.153 30.481-24.503 7.309-2.065 15.108-1.557 22.093 1.434 7.953 3.409 14.319 11.686 27.055 28.245l46.387 60.301c7.492 9.745 11.243 14.613 15.612 17.596 8.303 5.67 18.722 7.266 28.343 4.348 5.060-1.536 10.095-5.060 20.164-12.109 18.594-13.018 27.891-19.524 35.426-20.727 14.451-2.313 28.706 5.107 35.098 18.27 3.332 6.865 3.332 18.214 3.332 40.913v392.875c0 183.277-148.574 331.852-331.853 331.852zM711.113 611.554c0-36.655-29.713-66.372-66.368-66.372s-66.372 29.717-66.372 66.372c0 36.655 29.717 66.371 66.372 66.371s66.368-29.715 66.368-66.371zM445.628 611.554c0-36.655-29.713-66.372-66.368-66.372s-66.371 29.717-66.371 66.372c0 36.655 29.715 66.37 66.371 66.37s66.368-29.715 66.368-66.37z" />
<glyph unicode="&#xe947;" glyph-name="deleteleft" d="M896 896h-592.704c-44.133 0-85.153-22.735-108.544-60.16l-160-256c-25.942-41.507-25.942-94.173 0-135.68l160-256c23.391-37.425 64.411-60.16 108.544-60.16h592.704c70.692 0 128 57.308 128 128v512c0 70.692-57.308 128-128 128zM896 810.667c23.564 0 42.667-19.103 42.667-42.667v-512c0-23.564-19.103-42.667-42.667-42.667h-592.704c-14.711 0-28.384 7.578-36.181 20.053l-160 256c-8.647 13.836-8.647 31.391 0 45.227l160 256c7.797 12.475 21.47 20.053 36.181 20.053h592.704zM414.080 695.253c-16.613-16.613-16.613-43.547 0-60.16l123.093-123.093-123.093-123.093c-16.613-16.613-16.613-43.547 0-60.16s43.547-16.613 60.16 0l123.093 123.093 123.093-123.093c16.613-16.613 43.547-16.613 60.16 0s16.613 43.547 0 60.16l-123.093 123.093 123.093 123.093c16.613 16.613 16.613 43.547 0 60.16s-43.547 16.613-60.16 0l-123.093-123.093-123.093 123.093c-16.613 16.613-43.547 16.613-60.16 0z" />
<glyph unicode="&#xe948;" glyph-name="deleteuser" d="M448 746.667c0 58.91 47.757 106.667 106.667 106.667s106.667-47.756 106.667-106.667c0-58.91-47.757-106.667-106.667-106.667s-106.667 47.756-106.667 106.667zM554.667 938.667c-106.039 0-192-85.961-192-192s85.961-192 192-192c106.039 0 192 85.961 192 192s-85.961 192-192 192zM340.538 378.189c46.649 25.617 115.607 48.478 214.128 48.478 171.618 0 254.976-69.431 286.921-105.024 7.138-7.953 11.746-20.877 11.746-39.475 0-38.016-30.818-68.834-68.834-68.834h-293.833c-23.565 0-42.667-19.102-42.667-42.667s19.102-42.667 42.667-42.667h293.833c85.146 0 154.167 69.022 154.167 154.167 0 31.053-7.543 67.473-33.57 96.474-46.362 51.657-152.051 133.359-350.43 133.359-112.38 0-195.534-26.244-255.205-59.017-20.655-11.341-28.203-37.282-16.86-57.937s37.282-28.203 57.937-16.858zM392.837 307.503c16.662-16.661 16.662-43.678 0-60.339l-76.497-76.497 76.497-76.497c16.662-16.661 16.662-43.678 0-60.339s-43.677-16.661-60.34 0l-76.497 76.497-76.497-76.497c-16.663-16.661-43.677-16.661-60.34 0s-16.662 43.678 0 60.339l76.497 76.497-76.497 76.497c-16.662 16.661-16.662 43.678 0 60.339s43.677 16.661 60.34 0l76.497-76.497 76.497 76.497c16.663 16.661 43.677 16.661 60.34 0z" />
<glyph unicode="&#xe949;" glyph-name="devices" d="M251.733 938.667l-5.283 0.002c-30.538 0.015-53.202 0.026-72.959-4.717-62.404-14.982-111.128-63.706-126.11-126.11-4.743-19.757-4.732-42.421-4.717-72.959l0.002-5.283v-264.533l-0.002-5.282c-0.015-30.537-0.026-53.201 4.717-72.96 14.982-62.404 63.706-111.125 126.11-126.11 19.757-4.745 42.421-4.732 72.959-4.715h180.216v-85.333h-64c-23.564 0-42.667-19.102-42.667-42.667s19.103-42.667 42.667-42.667h213.334c23.565 0 42.667 19.102 42.667 42.667s-19.102 42.667-42.667 42.667h-64v85.333h64c23.565 0 42.667 19.102 42.667 42.667s-19.102 42.667-42.667 42.667h-324.267c-38.164 0-49.738 0.299-58.321 2.359-31.202 7.488-55.564 31.851-63.055 63.053-2.061 8.585-2.358 20.156-2.358 58.321v264.533c0 38.164 0.297 49.737 2.358 58.321 7.491 31.202 31.853 55.564 63.055 63.055 8.583 2.060 20.156 2.358 58.321 2.358h435.2c38.165 0 49.737-0.297 58.321-2.358 31.202-7.491 55.565-31.853 63.053-63.055 2.061-8.583 2.359-20.157 2.359-58.321v-68.267c0-23.564 19.102-42.667 42.667-42.667s42.667 19.102 42.667 42.667v73.55c0.017 30.538 0.026 53.201-4.715 72.958-14.985 62.404-63.706 111.128-126.11 126.11-19.759 4.743-42.423 4.732-72.96 4.717l-440.483-0.002zM827.733 554.667h-1.54c-16.602 0-31.539 0-43.968-1.015-13.312-1.084-27.456-3.546-41.318-10.611-20.070-10.227-36.386-26.543-46.613-46.613-7.066-13.862-9.527-28.006-10.615-41.318-1.015-12.429-1.011-27.366-1.011-43.968v0-182.281c0-16.602-0.004-31.539 1.011-43.968 1.088-13.312 3.55-27.456 10.615-41.318 10.227-20.070 26.543-36.386 46.613-46.613 13.862-7.066 28.006-9.527 41.318-10.611 12.429-1.015 27.366-1.015 43.968-1.015h11.614c16.602 0 31.539 0 43.968 1.015 13.312 1.084 27.456 3.546 41.318 10.611 20.070 10.227 36.386 26.543 46.613 46.613 7.066 13.862 9.523 28.006 10.611 41.318 1.015 12.429 1.015 27.366 1.015 43.968v0 182.281c0 16.602 0 31.539-1.015 43.968-1.088 13.312-3.546 27.456-10.611 41.318-10.227 20.070-26.543 36.386-46.613 46.613-13.862 7.066-28.006 9.527-41.318 10.611-12.429 1.015-27.366 1.015-43.968 1.015h-10.074zM779.648 467.008c0.017 0.009 0.111 0.055 0.333 0.137 0.23 0.081 0.657 0.218 1.353 0.384 1.459 0.341 3.866 0.751 7.838 1.075 8.533 0.695 19.934 0.73 38.562 0.73h8.533c18.624 0 30.029-0.034 38.562-0.73 3.972-0.324 6.379-0.734 7.838-1.075 0.695-0.166 1.122-0.303 1.353-0.384 0.222-0.081 0.316-0.128 0.333-0.137 4.015-2.044 7.279-5.308 9.323-9.323 0.009-0.017 0.055-0.111 0.137-0.333 0.081-0.23 0.218-0.657 0.38-1.353 0.346-1.459 0.755-3.866 1.079-7.838 0.695-8.533 0.73-19.938 0.73-38.562v-179.2c0-18.624-0.034-30.029-0.73-38.562-0.324-3.972-0.734-6.379-1.079-7.838-0.162-0.695-0.299-1.122-0.38-1.353-0.038-0.107-0.073-0.183-0.094-0.239-0.026-0.055-0.038-0.085-0.043-0.094-2.044-4.015-5.308-7.279-9.323-9.323-0.009-0.004-0.030-0.013-0.068-0.034-0.055-0.021-0.137-0.055-0.265-0.102-0.23-0.081-0.657-0.218-1.353-0.384-1.459-0.341-3.866-0.751-7.838-1.075-8.533-0.695-19.938-0.73-38.562-0.73h-8.533c-18.628 0-30.029 0.034-38.562 0.73-3.972 0.324-6.379 0.734-7.838 1.075-0.695 0.166-1.122 0.303-1.353 0.384-0.222 0.081-0.316 0.128-0.333 0.137-4.015 2.044-7.279 5.308-9.323 9.323-0.009 0.017-0.055 0.111-0.137 0.333-0.081 0.23-0.218 0.657-0.384 1.353-0.341 1.459-0.751 3.866-1.075 7.838-0.695 8.533-0.73 19.938-0.73 38.562v179.2c0 18.624 0.034 30.029 0.73 38.562 0.324 3.972 0.734 6.379 1.075 7.838 0.166 0.695 0.303 1.122 0.384 1.353 0.081 0.222 0.128 0.316 0.137 0.333 2.044 4.015 5.308 7.279 9.323 9.323z" />
<glyph unicode="&#xe94a;" glyph-name="document" d="M469.333 853.24v-138.203c0-34.345 0-62.691 1.886-85.782 1.958-23.983 6.165-46.028 16.717-66.738 16.363-32.111 42.47-58.219 74.581-74.581 20.71-10.551 42.756-14.758 66.739-16.717 23.091-1.886 51.435-1.886 85.781-1.886h138.202c0.077-7.753 0.094-16.866 0.094-27.776v-40.491c0-48.495-0.034-82.3-2.185-108.621-2.108-25.818-6.042-40.653-11.767-51.891-12.271-24.085-31.851-43.665-55.936-55.936-11.238-5.726-26.074-9.66-51.891-11.767-26.321-2.15-60.126-2.185-108.621-2.185h-221.867c-48.495 0-82.301 0.034-108.619 2.185-25.821 2.108-40.655 6.042-51.892 11.767-24.085 12.271-43.666 31.851-55.938 55.936-5.725 11.238-9.658 26.074-11.767 51.891-2.15 26.321-2.184 60.126-2.184 108.621v221.867c0 48.495 0.033 82.301 2.184 108.619 2.109 25.821 6.042 40.655 11.767 51.892 12.272 24.085 31.853 43.666 55.938 55.938 11.236 5.725 26.071 9.658 51.892 11.768 26.319 2.15 60.124 2.183 108.619 2.183h40.491c10.91 0 20.023-0.017 27.776-0.093zM832 554.667h-115.2c-36.548 0-61.393 0.034-80.597 1.604-18.705 1.527-28.271 4.297-34.944 7.697-16.055 8.179-29.111 21.235-37.291 37.292-3.401 6.673-6.17 16.239-7.697 34.945-1.57 19.204-1.604 44.048-1.604 80.596v115.2c10.637-7.285 22.17-18.509 49.809-46.149l181.376-181.375c27.639-27.64 38.861-39.173 46.148-49.809zM533.777 932.772c-24.631 5.914-50.291 5.906-87.356 5.895l-47.181-0.001c-46.241 0-83.538 0.001-113.741-2.467-31.098-2.541-58.412-7.909-83.683-20.785-40.141-20.453-72.777-53.089-93.23-93.23-12.876-25.271-18.244-52.586-20.785-83.683-2.468-30.203-2.467-67.5-2.467-113.741v-225.52c0-46.242-0.001-83.537 2.467-113.741 2.541-31.1 7.909-58.415 20.785-83.682 20.453-40.145 53.089-72.781 93.23-93.231 25.271-12.877 52.586-18.244 83.683-20.787 30.202-2.466 67.497-2.466 113.736-2.466h225.529c46.242 0 83.537 0 113.737 2.466 31.1 2.543 58.415 7.91 83.686 20.787 40.141 20.45 72.777 53.086 93.227 93.231 12.877 25.267 18.244 52.582 20.787 83.682 2.466 30.199 2.466 67.494 2.466 113.737v47.185c0.013 37.065 0.017 62.724-5.897 87.356-5.222 21.769-13.845 42.577-25.54 61.662-13.235 21.6-31.381 39.737-57.6 65.94l-188.25 188.251c-26.206 26.217-44.339 44.365-65.941 57.6-19.085 11.697-39.893 20.317-61.662 25.542z" />
<glyph unicode="&#xe94b;" glyph-name="down" d="M512 401.673l268.497 268.497c16.662 16.662 43.677 16.662 60.34 0s16.662-43.677 0-60.34l-298.667-298.667c-16.662-16.662-43.677-16.662-60.34 0l-298.667 298.667c-16.662 16.662-16.662 43.677 0 60.34s43.677 16.662 60.34 0l268.497-268.497z" />
<glyph unicode="&#xe94c;" glyph-name="download" d="M213.333 213.333h597.333c23.564 0 42.667-19.103 42.667-42.667 0-21.881-16.471-39.915-37.691-42.38l-4.976-0.287h-597.333c-23.564 0-42.667 19.103-42.667 42.667 0 21.881 16.471 39.915 37.691 42.38l4.976 0.287zM507.024 895.713l4.976 0.287c21.881 0 39.915-16.471 42.38-37.691l0.287-4.976v-408.96l140.497 140.463c15.381 15.381 39.583 16.564 56.32 3.549l4.020-3.549c15.381-15.381 16.564-39.583 3.549-56.32l-3.549-4.020-213.333-213.333c-15.381-15.381-39.583-16.564-56.32-3.549l-4.020 3.549-213.333 213.333c-16.662 16.662-16.662 43.677 0 60.34 15.381 15.381 39.583 16.564 56.32 3.549l4.020-3.549 140.497-140.463v408.96c0 21.881 16.471 39.915 37.691 42.38v0z" />
<glyph unicode="&#xe94d;" glyph-name="dragfiles" d="M519.32 938.667c33.948 0 66.505-13.486 90.51-37.49l291.346-291.346c24.005-24.005 37.49-56.562 37.49-90.51v-305.987c0-70.692-57.308-128-128-128h-597.333c-70.692 0-128 57.308-128 128v597.333c0 70.692 57.308 128 128 128h305.987zM469.333 853.333h-256c-23.564 0-42.667-19.103-42.667-42.667v-597.333c0-23.564 19.103-42.667 42.667-42.667h597.333c23.564 0 42.667 19.103 42.667 42.667v256h-256c-69.605 0-126.234 55.558-127.959 124.747l-0.041 3.253v256zM835.659 554.667l-280.992 280.992v-238.325c0-22.85 17.962-41.505 40.537-42.614l2.129-0.052h238.325z" />
<glyph unicode="&#xe94e;" glyph-name="dragmedia" d="M810.667 938.667c70.692 0 128-57.308 128-128v-597.333c0-70.692-57.308-128-128-128h-597.333c-70.692 0-128 57.308-128 128v597.333c0 70.692 57.308 128 128 128h597.333zM382.252 406.812l-2.649 1.925c-8.919 5.489-20.293 3.626-27.047-3.903l-2.302-3.086-142.026-230.78 2.533-0.226 320.269-0.076-144.516 231.209c-1.162 1.86-2.601 3.523-4.261 4.937v0zM668.078 503.78c-8.979 5.391-20.331 3.404-27.003-4.199l-2.269-3.111-103.298-172.033 96.085-153.771h179.072c23.085 0 41.888 18.334 42.643 41.236l-178.122 284.894c-1.785 2.857-4.222 5.25-7.11 6.984zM810.667 853.333h-597.333c-23.564 0-42.667-19.103-42.667-42.667v-537.856l106.911 173.66c29.588 48.082 91.16 64.453 140.398 38.56l6.349-3.618c11.674-7.184 21.831-16.536 29.937-27.525l4.613-6.786 25.86-41.427 80.91 134.719c29.059 48.403 90.449 65.447 139.967 40.095l6.388-3.548c12.034-7.225 22.499-16.738 30.819-27.974l4.73-6.944 105.783-169.287v437.931c0 23.564-19.103 42.667-42.667 42.667z" />
<glyph unicode="&#xe94f;" glyph-name="eats" d="M348.832 962.806c13.342 19.423 39.904 24.352 59.327 11.010 33.446-22.975 65.138-54.661 95.307-94.881 9.357-12.475 17.47-24.268 24.308-35.483 7.542 12.426 17.444 25.949 29.639 40.582 40.837 49.004 97.726 77.455 170.669 85.352-8.832-48.625-25.923-89.734-51.272-123.327l6.436 0.856c60.564 6.345 112.536-4.854 154.549-38.978l16.384-14.111c220.707-196.277 126.127-654.254-158.018-748.969l-4.259-1.178c-43.991-9.751-73.079-7.852-109.154 3.681l-25.15 8.694c-17.645 5.903-28.787 7.947-45.597 7.947-16.795 0-27.935-2.046-45.572-7.953l-25.186-8.717c-36.082-11.546-65.192-13.438-109.182-3.643l-4.219 1.17c-289.524 96.508-379.735 565.602-138.175 758.645 77.415 51.61 141.326 55.739 229.838 31.19l13.32-3.816c-24.135 31.66-48.532 55.808-72.982 72.604-19.423 13.342-24.352 39.904-11.010 59.327zM239.987 734.683c-184.684-147.747-111.593-531.199 112.777-608.175 26.131-5.621 40.407-4.914 61.688 1.837l8.345 2.814 18.109 6.328c25.088 8.293 44.156 11.847 71.093 11.847 26.94 0 46.002-3.548 71.090-11.831l26.426-9.121c18.636-5.906 31.906-7.191 52.451-3.67l9.287 1.804 9.742 3.575c212.168 82.926 284.334 447.443 116.911 599.538l-13.711 11.806c-23.708 18.694-53.002 24.706-92.061 20.614-19.268-2.019-38.538-6-66.596-13.353l-51.84-13.807-14.982-3.716c-17.745-4.186-27.429-5.456-39.45-5.757l-11.772-0.049c-17.461 0.26-28.883 2.268-56.363 10.474l-44.697 13.83c-72.092 21.465-113.983 19.808-166.449-14.986z" />
<glyph unicode="&#xe950;" glyph-name="edit" d="M828.339 896l67.661-67.66c33.323-33.325 33.323-87.355 0-120.68l-567.163-567.163c-8.002-8-18.854-12.497-30.17-12.497h-128c-11.316 0-22.168 4.497-30.17 12.497s-12.497 18.854-12.497 30.17v128c0 11.315 4.495 22.17 12.497 30.17l469.334 469.334c0.013 0.015 0.030 0.029 0.043 0.044l97.788 97.786c33.323 33.325 87.356 33.325 120.678 0zM768 700.34l67.661 67.66-67.661 67.66-67.661-67.66 67.661-67.66zM640 707.66l-426.667-426.666v-67.661h67.66l426.667 426.667-67.661 67.66z" />
<glyph unicode="&#xe951;" glyph-name="email" d="M810.667 853.333c68.168 0 123.89-53.287 127.783-120.479l0.217-7.521v-426.667c0-68.168-53.287-123.89-120.479-127.783l-7.521-0.217h-597.333c-68.168 0-123.89 53.287-127.783 120.479l-0.217 7.521v426.667c0 68.168 53.287 123.89 120.479 127.783l7.521 0.217h597.333zM853.333 688.299l-270.332-180.243c-40.466-26.977-92.463-28.564-134.286-4.761l-7.717 4.761-270.332 180.201v-389.589c0-21.881 16.471-39.915 37.691-42.38l4.976-0.287h597.333c21.881 0 39.915 16.471 42.38 37.691l0.287 4.976v389.632zM810.667 768h-597.333c-2.517 0-4.984-0.218-7.381-0.636l282.381-188.307c12.739-8.493 28.907-9.437 42.408-2.831l4.926 2.831 282.381 188.307-3.646 0.475-3.736 0.161z" />
<glyph unicode="&#xe952;" glyph-name="endcall_filled" d="M72.731 562.743l4.897 4.693c119.915 101.742 274.447 157.897 434.5 157.897 160.055 0 314.586-56.155 434.5-157.897 10.603-9.229 19.136-20.437 25.071-32.939 5.943-12.501 9.156-26.035 9.463-39.77 0.849-14.528-1.468-29.069-6.793-42.692-5.321-13.632-13.538-26.044-24.132-36.459l-44.843-43.034c-18.953-18.419-44.326-29.474-71.253-31.023-26.923-1.553-53.5 6.502-74.611 22.613l-71.642 55.898c-12.949 9.835-23.411 22.349-30.588 36.612-7.189 14.263-10.918 29.905-10.901 45.747l-8.252 140.485c-83.11 17.59-169.225 17.503-252.299-0.248l-7.73-140.979c-0.142-15.671-3.944-31.121-11.123-45.197-7.184-14.084-17.56-26.445-30.371-36.169l-72.931-55.65c-21.124-16.017-47.66-23.987-74.527-22.387-26.867 1.596-52.175 12.646-71.079 31.044l-44.069 42.287c-10.671 10.423-18.956 22.869-24.326 36.54s-7.705 28.271-6.857 42.854c0.667 25.408 11.351 49.626 29.894 67.772z" />
<glyph unicode="&#xe953;" glyph-name="enter" d="M810.667 896c0 23.564-19.102 42.667-42.667 42.667s-42.667-19.103-42.667-42.667v-418.133c0-24.602-0.034-40.482-1.020-52.574-0.947-11.588-2.556-15.885-3.631-17.997-4.092-8.030-10.615-14.554-18.645-18.645-2.112-1.075-6.409-2.684-17.997-3.631-12.092-0.986-27.972-1.020-52.574-1.020h-357.794l140.497 140.497c16.661 16.661 16.661 43.678 0 60.339-16.663 16.663-43.677 16.663-60.34 0l-213.333-213.333c-16.662-16.661-16.662-43.678 0-60.339l213.333-213.333c16.663-16.661 43.677-16.661 60.34 0 16.661 16.661 16.661 43.678 0 60.339l-140.497 140.497h359.441c22.49 0 41.894 0 57.873 1.306 16.87 1.378 33.647 4.42 49.792 12.646 24.085 12.271 43.665 31.851 55.936 55.936 8.226 16.145 11.268 32.922 12.646 49.792 1.306 15.979 1.306 35.383 1.306 57.873v419.78z" />
<glyph unicode="&#xe954;" glyph-name="expand" d="M128 853.333c0 23.564 19.103 42.667 42.667 42.667h256c23.565 0 42.667-19.103 42.667-42.667s-19.102-42.667-42.667-42.667h-213.333v-213.333c0-23.565-19.103-42.667-42.667-42.667s-42.667 19.102-42.667 42.667v256zM853.333 469.333c23.565 0 42.667-19.102 42.667-42.667v-256c0-23.565-19.102-42.667-42.667-42.667h-256c-23.565 0-42.667 19.102-42.667 42.667s19.102 42.667 42.667 42.667h213.333v213.333c0 23.565 19.102 42.667 42.667 42.667zM140.497 883.503c16.663 16.662 43.677 16.662 60.34 0l256-256c16.661-16.663 16.661-43.678 0-60.34s-43.677-16.661-60.34 0l-256 256c-16.662 16.663-16.662 43.677 0 60.34zM567.164 456.836c16.661 16.661 43.678 16.661 60.339 0l256-256c16.661-16.661 16.661-43.678 0-60.339s-43.678-16.661-60.339 0l-256 256c-16.661 16.661-16.661 43.678 0 60.339z" />
<glyph unicode="&#xe955;" glyph-name="eye" d="M128.012 511.945l-0.007 0.051 0.010 0.064c0.090 0.631 0.695 4.864 4.476 13.333 3.975 8.9 10.388 20.096 19.525 32.93 18.251 25.647 45.663 55.458 80.789 83.779 70.457 56.809 168.006 104.564 279.353 104.564 112.512 0 209.958-47.797 279.953-104.502 34.918-28.286 62.071-58.063 80.119-83.675 9.037-12.826 15.377-24.013 19.307-32.922 3.831-8.687 4.382-12.975 4.454-13.521l0.004-0.051-0.004-0.038c-0.060-0.503-0.589-4.809-4.446-13.594-3.913-8.909-10.223-20.096-19.221-32.913-17.975-25.6-45.035-55.364-79.881-83.635-69.837-56.666-167.27-104.482-280.286-104.482-112.015 0-209.553 47.782-279.796 104.538-35.030 28.301-62.317 58.099-80.469 83.725-9.087 12.83-15.463 24.021-19.415 32.926-3.805 8.572-4.385 12.834-4.465 13.423zM512.158 832c-135.91 0-251.774-58.044-332.915-123.468-40.673-32.794-73.606-68.207-96.75-100.727-11.561-16.245-21.108-32.365-27.919-47.618-6.499-14.554-11.907-31.386-11.907-48.188 0-16.742 5.353-33.54 11.816-48.098 6.769-15.253 16.264-31.377 27.775-47.629 23.045-32.533 55.864-67.964 96.474-100.779 81.037-65.476 196.912-123.494 333.426-123.494 137.425 0 253.244 57.984 334.054 123.55 40.478 32.845 73.088 68.305 95.949 100.868 11.422 16.265 20.821 32.393 27.516 47.637 6.4 14.566 11.657 31.305 11.657 47.945 0 16.687-5.299 33.446-11.725 48.013-6.724 15.245-16.166 31.373-27.622 47.631-22.938 32.549-55.633 67.997-96.158 100.827-80.887 65.527-196.698 123.529-333.67 123.529zM597.333 512c0 47.13-38.204 85.333-85.333 85.333s-85.333-38.204-85.333-85.333c0-47.13 38.204-85.333 85.333-85.333s85.333 38.204 85.333 85.333zM682.667 512c0-94.255-76.412-170.667-170.667-170.667-94.257 0-170.667 76.412-170.667 170.667 0 94.257 76.41 170.667 170.667 170.667 94.255 0 170.667-76.41 170.667-170.667z" />
<glyph unicode="&#xe956;" glyph-name="eye1" d="M512.159 789.333c249.485 0 426.508-211.597 426.508-277.333s-176.070-277.333-426.508-277.333c-248.531 0-426.826 211.597-426.826 277.333s179.565 277.333 426.826 277.333zM512 682.667c-94.257 0-170.667-76.41-170.667-170.667s76.41-170.667 170.667-170.667c94.257 0 170.667 76.41 170.667 170.667s-76.41 170.667-170.667 170.667zM512 576c35.346 0 64-28.654 64-64s-28.654-64-64-64c-35.346 0-64 28.654-64 64s28.654 64 64 64z" />
<glyph unicode="&#xe957;" glyph-name="eye2" d="M138.557 838.763c14.323 16.37 38.393 19.16 55.959 7.288l4.247-3.274 682.667-597.333c17.734-15.517 19.531-42.472 4.014-60.206-14.323-16.37-38.393-19.16-55.959-7.288l-4.247 3.274-113.642 99.426c-58.284-27.606-125.631-45.983-199.436-45.983-248.531 0-426.826 211.597-426.826 277.333 0 36.906 56.598 119.786 149.999 185.387l-92.761 81.17c-17.734 15.517-19.531 42.472-4.014 60.206zM341.333 512c0-94.257 76.41-170.667 170.667-170.667 35.709 0 68.857 10.967 96.258 29.716l-88.514 77.414c-2.539-0.306-5.123-0.464-7.744-0.464-35.101 0-63.602 28.257-63.996 63.265l-88.501 77.445c-11.623-23.062-18.169-49.121-18.169-76.71zM512.159 789.333c249.485 0 426.508-211.597 426.508-277.333 0-27.128-29.986-79.097-82.81-130.785l-174.596 152.787c-10.435 81.068-77.75 144.323-160.633 148.45l-9.311 0.214-106.655 93.298c34.013 8.496 69.975 13.369 107.496 13.369z" />
</font>
</defs>
</svg>
